<?xml version="1.0" standalone="no"?>
<!DOCTYPE svg PUBLIC "-//W3C//DTD SVG 1.1//EN" "http://www.w3.org/Graphics/SVG/1.1/DTD/svg11.dtd" >
<svg xmlns="http://www.w3.org/2000/svg" xmlns:xlink="http://www.w3.org/1999/xlink" version="1.1">
<metadata>
Created by FontForge 20170731 at Thu Jun 10 21:37:58 2021
 By Aleksey,,,
Copyright (c) 2016 by Radomir Tinkov. All rights reserved.
</metadata>
<defs>
<font id="Gilroy-Light" horiz-adv-x="564" >
  <font-face 
    font-family="Gilroy Light"
    font-weight="300"
    font-stretch="normal"
    units-per-em="1000"
    panose-1="0 0 4 0 0 0 0 0 0 0"
    ascent="800"
    descent="-200"
    x-height="500"
    cap-height="700"
    bbox="-295 -240 1021 960"
    underline-thickness="50"
    underline-position="-150"
    unicode-range="U+001D-FB02"
  />
<missing-glyph horiz-adv-x="500" 
d="M410 800v-1000h-317v1000h317zM333 733h-165v-33h65v-37h-66v-33h166v33h-66v37h66v33zM267 604h-100v-104h166v34h-66v70zM233 570v-36h-33v36h33zM333 473h-166v-33h66v-37h-66v-33h100v70h66v33zM333 413h-33v-66h-133v-34h166v100zM333 291h-100v-56h34v23h33v-47
h-100v80h-33v-113h166v113zM333 118h-166v-113h166v113zM300 85v-47h-100v47h100zM333 -18h-166v-33h70l-70 -47v-33h166v33h-102l70 47h32v33z" />
    <glyph glyph-name="uniFB01" unicode="fi" horiz-adv-x="510" 
d="M434 500v-500h-51v451h-219v-451h-51v451h-86v49h86v27q0 184 200 184q45 0 97 -11v-46q-49 9 -97 9q-77 0 -113 -32t-36 -104v-27h270z" />
    <glyph glyph-name="uniFB02" unicode="fl" horiz-adv-x="510" 
d="M313 711q55 0 121 -11v-700h-51v661q-31 4 -70 4q-77 0 -113 -33t-36 -105v-27h119v-49h-119v-451h-51v451h-86v49h86v27q0 184 200 184z" />
    <glyph glyph-name="f_f.liga" unicode="ff" horiz-adv-x="583" 
d="M583 673q-149 12 -149 -136v-37h149v-49h-149v-451h-51v451h-219v-451h-51v451h-86v49h86v27q0 94 51.5 142.5t148.5 41.5v-48q-149 12 -149 -136v-27h219v37q0 94 51.5 142.5t148.5 41.5v-48z" />
    <glyph glyph-name="f_f_i.liga" unicode="ffi" horiz-adv-x="780" 
d="M703 500v-500h-50v451h-219v-451h-51v451h-219v-451h-51v451h-86v49h86v27q0 94 51.5 142.5t148.5 41.5v-48q-149 12 -149 -136v-27h219v37q0 184 200 184q44 0 97 -11v-46q-50 9 -97 9q-78 0 -113.5 -32t-35.5 -104v-37h269z" />
    <glyph glyph-name="f_f_l.liga" unicode="ffl" horiz-adv-x="780" 
d="M583 721q56 0 120 -11v-710h-50v671q-31 4 -70 4q-78 0 -113.5 -33t-35.5 -105v-37h119v-49h-119v-451h-51v451h-219v-451h-51v451h-86v49h86v27q0 94 51.5 142.5t148.5 41.5v-48q-149 12 -149 -136v-27h219v37q0 184 200 184z" />
    <glyph glyph-name=".notdef" horiz-adv-x="500" 
d="M410 800v-1000h-317v1000h317zM333 733h-165v-33h65v-37h-66v-33h166v33h-66v37h66v33zM267 604h-100v-104h166v34h-66v70zM233 570v-36h-33v36h33zM333 473h-166v-33h66v-37h-66v-33h100v70h66v33zM333 413h-33v-66h-133v-34h166v100zM333 291h-100v-56h34v23h33v-47
h-100v80h-33v-113h166v113zM333 118h-166v-113h166v113zM300 85v-47h-100v47h100zM333 -18h-166v-33h70l-70 -47v-33h166v33h-102l70 47h32v33z" />
    <glyph glyph-name=".null" horiz-adv-x="0" 
 />
    <glyph glyph-name="glyph2" horiz-adv-x="333" 
 />
    <glyph glyph-name="uni001D" horiz-adv-x="0" 
 />
    <glyph glyph-name="uni001D" horiz-adv-x="0" 
 />
    <glyph glyph-name="space" unicode=" " horiz-adv-x="267" 
 />
    <glyph glyph-name="exclam" unicode="!" horiz-adv-x="220" 
d="M90 180l-10 320v200h60v-200l-10 -320h-40zM110 -10q-19 0 -32 13t-13 32t13 32t32 13t32 -13t13 -32t-13 -32t-32 -13z" />
    <glyph glyph-name="quotedbl" unicode="&#x22;" horiz-adv-x="293" 
d="M60 513l-7 187h54l-7 -187h-40zM193 513l-6 187h53l-7 -187h-40z" />
    <glyph glyph-name="numbersign" unicode="#" horiz-adv-x="603" 
d="M559 417h-119l-22 -134h120l-8 -46h-120l-31 -187h-50l31 187h-154l-31 -187h-50l31 187h-119l7 46h120l22 134h-120l7 46h121l31 187h50l-31 -187h154l31 187h50l-31 -187h119zM368 283l22 134h-154l-22 -134h154z" />
    <glyph glyph-name="dollar" unicode="$" horiz-adv-x="550" 
d="M507 179q0 -78 -53.5 -129.5t-140.5 -59.5v-90h-47v89q-83 4 -141.5 41t-81.5 101l46 26q36 -109 177 -117v297q-47 16 -74.5 29t-57.5 35t-44 53.5t-14 74.5q0 76 54 126t136 55v90h47v-90q61 -7 107.5 -39t69.5 -87l-45 -25q-35 87 -132 99v-284q36 -13 60 -23t52 -27
t44 -35.5t27 -46.5t11 -63zM129 529q0 -54 34 -83.5t103 -54.5v268q-61 -5 -99 -41t-38 -89zM313 42q66 7 103 44.5t37 92.5t-35 86t-105 56v-279z" />
    <glyph glyph-name="percent" unicode="%" horiz-adv-x="716" 
d="M216 413q-66 0 -109.5 43t-43.5 106t43.5 106t109.5 43t109.5 -43t43.5 -106t-43 -106t-110 -43zM216 459q45 0 74.5 29.5t29.5 73.5t-29.5 73.5t-74.5 29.5t-74 -29.5t-29 -73.5t29 -73.5t74 -29.5zM101 90l475 534l34 -19l-476 -534zM499 -11q-66 0 -109.5 43
t-43.5 106t43.5 106t109.5 43t109.5 -43t43.5 -106t-43.5 -106t-109.5 -43zM499 35q45 0 74.5 29.5t29.5 73.5t-29.5 73.5t-74.5 29.5t-74 -29.5t-29 -73.5t29 -73.5t74 -29.5z" />
    <glyph glyph-name="ampersand" unicode="&#x26;" horiz-adv-x="655" 
d="M628 19l-47 -27l-81 85q-77 -88 -209 -88q-104 0 -166 53.5t-62 143.5q0 66 36 120.5t103 83.5q-56 65 -56 137q0 83 58 133.5t140 50.5q67 0 120 -35t75 -97l-44 -26q-16 49 -56.5 78t-93.5 29q-63 0 -104 -37t-41 -94q0 -39 19 -70.5t57 -70.5l219 -229q32 59 42 139
l47 -27q-14 -87 -52 -151zM289 40q109 0 175 75l-225 236q-62 -23 -92 -67.5t-30 -96.5q0 -69 46.5 -108t125.5 -39z" />
    <glyph glyph-name="quotesingle" unicode="'" horiz-adv-x="157" 
d="M60 513l-7 187h54l-7 -187h-40z" />
    <glyph glyph-name="parenleft" unicode="(" horiz-adv-x="261" 
d="M170 -100q-110 220 -110 450t110 450h51q-110 -220 -110 -450t110 -450h-51z" />
    <glyph glyph-name="parenright" unicode=")" horiz-adv-x="261" 
d="M91 -100h-51q110 220 110 450t-110 450h51q110 -220 110 -450t-110 -450z" />
    <glyph glyph-name="asterisk" unicode="*" horiz-adv-x="387" 
d="M323 611v-43l-95 2l53 -79l-39 -23l-49 84l-48 -84l-40 23l53 79l-95 -2v43l95 -2l-53 79l40 23l48 -83l49 83l39 -23l-53 -79z" />
    <glyph glyph-name="plus" unicode="+" horiz-adv-x="533" 
d="M470 374v-48h-179v-179h-49v179h-179v48h179v179h49v-179h179z" />
    <glyph glyph-name="comma" unicode="," horiz-adv-x="223" 
d="M162 68l-54 -208h-46l38 208h62z" />
    <glyph glyph-name="hyphen" unicode="-" horiz-adv-x="533" 
d="M87 285v48h360v-48h-360z" />
    <glyph glyph-name="period" unicode="." horiz-adv-x="213" 
d="M107 -10q-19 0 -32 13t-13 32t13 32t32 13t32 -13t13 -32t-13 -32t-32 -13z" />
    <glyph glyph-name="slash" unicode="/" horiz-adv-x="527" 
d="M83 -100h-40l400 900h40z" />
    <glyph glyph-name="zero" unicode="0" horiz-adv-x="630" 
d="M315 -11q-124 0 -193 98t-69 263t69 263t193 98t193 -98t69 -263t-69 -263t-193 -98zM315 40q98 0 153 81.5t55 228.5t-55 228.5t-153 81.5t-153 -81.5t-55 -228.5t55 -228.5t153 -81.5z" />
    <glyph glyph-name="one" unicode="1" horiz-adv-x="332" 
d="M200 700h45v-700h-53v642l-162 -51l-13 46z" />
    <glyph glyph-name="two" unicode="2" horiz-adv-x="527" 
d="M43 0v48l257 264q113 117 113 198q0 70 -44 110t-110 40q-117 0 -167 -106l-45 27q31 63 86.5 96.5t125.5 33.5q85 0 146.5 -54t61.5 -147q0 -60 -34.5 -116.5t-96.5 -119.5l-217 -223h364v-51h-440z" />
    <glyph glyph-name="three" unicode="3" horiz-adv-x="539" 
d="M290 409q88 -9 145 -63t57 -144q0 -98 -67 -155.5t-164 -57.5q-78 0 -138 35t-85 98l44 26q19 -52 66 -80t113 -28q78 0 128 44t50 118t-50.5 118t-129.5 44v1l-1 -1h-14l-23 35l177 251h-342v50h403v-50z" />
    <glyph glyph-name="four" unicode="4" horiz-adv-x="573" 
d="M548 197v-50h-90v-147h-53v147h-377v50l266 503h58l-265 -503h318v220h53v-220h90z" />
    <glyph glyph-name="five" unicode="5" horiz-adv-x="541" 
d="M266 415q98 0 165.5 -57.5t67.5 -155.5t-67.5 -155.5t-165.5 -57.5q-77 0 -137.5 37t-83.5 104l45 26q17 -56 64 -86t112 -30q79 0 129.5 44t50.5 118t-50.5 118t-129.5 44h-187l24 336h370v-50h-323l-16 -235h132z" />
    <glyph glyph-name="six" unicode="6" horiz-adv-x="537" 
d="M268 450q103 0 169 -64.5t66 -166.5q0 -101 -66 -165.5t-169 -64.5t-169 64.5t-66 165.5q0 79 43 140l235 341h60l-179 -261q38 11 76 11zM268 40q82 0 132 50t50 129q0 80 -50 130t-132 50t-131.5 -50t-49.5 -130q0 -79 49.5 -129t131.5 -50z" />
    <glyph glyph-name="seven" unicode="7" horiz-adv-x="490" 
d="M23 700h424v-50l-272 -650h-55l272 650h-369v50z" />
    <glyph glyph-name="eight" unicode="8" horiz-adv-x="550" 
d="M382 362q58 -23 91.5 -69t33.5 -106q0 -93 -65 -145.5t-167 -52.5t-167 52.5t-65 145.5q0 60 33.5 106t91.5 69q-47 23 -74.5 64.5t-27.5 95.5q0 89 60.5 139t148.5 50t148.5 -50t60.5 -139q0 -54 -27.5 -95.5t-74.5 -64.5zM119 522q0 -63 44 -100t112 -37t112 37t44 100
q0 65 -43.5 101.5t-112.5 36.5t-112.5 -36.5t-43.5 -101.5zM275 40q82 0 130 39t48 108t-48 107.5t-130 38.5t-130 -38.5t-48 -107.5t48 -108t130 -39z" />
    <glyph glyph-name="nine" unicode="9" horiz-adv-x="537" 
d="M503 481q0 -79 -43 -140l-234 -341h-60l179 261q-38 -11 -77 -11q-103 0 -169 64.5t-66 166.5q0 101 66 165.5t169 64.5t169 -64.5t66 -165.5zM87 481q0 -80 49.5 -130t131.5 -50t132 50t50 130q0 79 -50 129t-132 50t-131.5 -50t-49.5 -129z" />
    <glyph glyph-name="colon" unicode=":" horiz-adv-x="213" 
d="M107 410q-19 0 -32 13t-13 32t13 32t32 13t32 -13t13 -32t-13 -32t-32 -13zM107 -10q-19 0 -32 13t-13 32t13 32t32 13t32 -13t13 -32t-13 -32t-32 -13z" />
    <glyph glyph-name="semicolon" unicode=";" horiz-adv-x="230" 
d="M124 410q-19 0 -32 13t-13 32t13 32t32 13t32 -13t13 -32t-13 -32t-32 -13zM162 68l-54 -208h-46l38 208h62z" />
    <glyph glyph-name="less" unicode="&#x3c;" horiz-adv-x="527" 
d="M464 554v-56l-343 -148l343 -148v-56l-400 178v52z" />
    <glyph glyph-name="equal" unicode="=" horiz-adv-x="537" 
d="M63 426v48h410v-48h-410zM63 226v48h410v-48h-410z" />
    <glyph glyph-name="greater" unicode="&#x3e;" horiz-adv-x="527" 
d="M63 554l400 -178v-52l-400 -178v56l343 148l-343 148v56z" />
    <glyph glyph-name="question" unicode="?" horiz-adv-x="530" 
d="M220 180q0 49 20 90.5t48 71.5t56.5 58t48.5 61.5t20 69.5q0 62 -41 95.5t-111 33.5q-60 0 -103.5 -27.5t-59.5 -78.5l-45 25q22 64 79 98t129 34q88 0 147 -47.5t59 -132.5q0 -42 -20 -79t-48.5 -66.5t-57 -58.5t-48.5 -67t-20 -80h-53zM247 -10q-19 0 -32 13t-13 32
t13 32t32 13t32 -13t13 -32t-13 -32t-32 -13z" />
    <glyph glyph-name="at" unicode="@" horiz-adv-x="807" 
d="M411 612q106 0 188 -51.5t122 -128.5t40 -162q0 -106 -41.5 -157.5t-98.5 -51.5q-42 0 -70 24t-35 68q-43 -63 -120 -63q-69 0 -115.5 46t-46.5 114t46.5 114t115.5 46q76 0 118 -60v53h48v-223q0 -91 66 -91q47 0 76.5 45.5t29.5 135.5q0 135 -93 226t-230 91
q-141 0 -239.5 -97t-98.5 -240q0 -146 101 -241.5t255 -95.5q100 0 171 28l3 -26q-75 -27 -174 -27q-164 0 -273 102.5t-109 259.5q0 151 104.5 256.5t259.5 105.5zM398 136q49 0 82.5 32t33.5 82t-33.5 82t-82.5 32t-82.5 -32t-33.5 -82t33.5 -82t82.5 -32z" />
    <glyph glyph-name="A" unicode="A" horiz-adv-x="629" 
d="M558 0l-68 178h-351l-68 -178h-56l272 700h56l271 -700h-56zM159 228h312l-156 407z" />
    <glyph glyph-name="B" unicode="B" horiz-adv-x="623" 
d="M460 363q54 -21 87 -67t33 -105q0 -79 -56 -135t-135 -56h-302v700h279q76 0 130 -54t54 -130q0 -50 -24.5 -90.5t-65.5 -62.5zM366 650h-226v-268h226q54 0 92.5 39.5t38.5 94.5t-38.5 94.5t-92.5 39.5zM389 50q57 0 97.5 41.5t40.5 99.5t-40.5 99.5t-97.5 41.5h-249
v-282h249z" />
    <glyph glyph-name="C" unicode="C" horiz-adv-x="751" 
d="M411 -11q-158 0 -261 104.5t-103 256.5t103 256.5t261 104.5q96 0 176 -45.5t124 -122.5l-47 -27q-35 65 -103 104.5t-150 39.5q-136 0 -223.5 -89.5t-87.5 -220.5t87.5 -220.5t223.5 -89.5q82 0 151 40t104 107l47 -27q-43 -78 -124 -124.5t-178 -46.5z" />
    <glyph glyph-name="D" unicode="D" horiz-adv-x="727" 
d="M350 700q143 0 236.5 -101.5t93.5 -248.5t-93.5 -248.5t-236.5 -101.5h-263v700h263zM350 50q122 0 200 86.5t78 213.5t-78 213.5t-200 86.5h-210v-600h210z" />
    <glyph glyph-name="E" unicode="E" horiz-adv-x="533" 
d="M140 50h350v-50h-403v700h398v-50h-345v-272h320v-50h-320v-278z" />
    <glyph glyph-name="F" unicode="F" horiz-adv-x="518" 
d="M475 650h-335v-280h323v-50h-323v-320h-53v700h388v-50z" />
    <glyph glyph-name="G" unicode="G" horiz-adv-x="799" 
d="M753 326v-27q0 -131 -93 -220.5t-245 -89.5q-160 0 -264 104.5t-104 256.5t103 256.5t261 104.5q96 0 176.5 -46t124.5 -123l-47 -28q-35 66 -103.5 106t-150.5 40q-136 0 -223.5 -89.5t-87.5 -220.5t88 -220.5t227 -89.5q123 0 199 67t85 169h-297v50h351z" />
    <glyph glyph-name="H" unicode="H" horiz-adv-x="687" 
d="M547 700h53v-700h-53v335h-407v-335h-53v700h53v-315h407v315z" />
    <glyph glyph-name="I" unicode="I" horiz-adv-x="227" 
d="M87 700h53v-700h-53v700z" />
    <glyph glyph-name="J" unicode="J" horiz-adv-x="553" 
d="M252 -11q-73 0 -128.5 30t-80.5 87l45 27q37 -93 164 -93q78 0 124.5 39.5t46.5 112.5v508h54v-508q0 -97 -63.5 -150t-161.5 -53z" />
    <glyph glyph-name="K" unicode="K" horiz-adv-x="572" 
d="M562 0h-71l-351 345v-345h-53v700h53v-326l341 326h71l-354 -340z" />
    <glyph glyph-name="L" unicode="L" horiz-adv-x="493" 
d="M140 50h330v-50h-383v700h53v-650z" />
    <glyph glyph-name="M" unicode="M" horiz-adv-x="807" 
d="M720 700v-700h-53v622l-259 -430h-9l-259 430v-622h-53v700h66l250 -414l250 414h67z" />
    <glyph glyph-name="N" unicode="N" horiz-adv-x="687" 
d="M547 700h53v-700h-47l-413 602v-602h-53v700h46l414 -602v602z" />
    <glyph glyph-name="O" unicode="O" horiz-adv-x="816" 
d="M408 -11q-151 0 -256 105.5t-105 255.5t105 255.5t256 105.5t256 -105.5t105 -255.5t-105 -255.5t-256 -105.5zM408 40q129 0 218.5 90.5t89.5 219.5t-89.5 219.5t-218.5 90.5t-218.5 -90.5t-89.5 -219.5t89.5 -219.5t218.5 -90.5z" />
    <glyph glyph-name="P" unicode="P" horiz-adv-x="587" 
d="M325 700q94 0 156 -62t62 -155t-62 -154.5t-156 -61.5h-185v-267h-53v700h238zM325 317q72 0 118.5 47t46.5 119q0 73 -46.5 120t-118.5 47h-185v-333h185z" />
    <glyph glyph-name="Q" unicode="Q" horiz-adv-x="821" 
d="M769 350q0 -153 -110 -260l82 -81l-36 -33l-84 82q-95 -69 -213 -69q-150 0 -255.5 105.5t-105.5 255.5t105.5 255.5t255.5 105.5t255.5 -105.5t105.5 -255.5zM408 40q97 0 176 55l-155 153l36 33l157 -155q94 92 94 224q0 129 -90 219.5t-218 90.5t-218 -90.5
t-90 -219.5t90 -219.5t218 -90.5z" />
    <glyph glyph-name="R" unicode="R" horiz-adv-x="613" 
d="M529 0l-168 287h-221v-287h-53v700h276q85 0 146 -61t61 -146q0 -71 -43.5 -126t-110.5 -73l174 -294h-61zM140 650v-313h223q64 0 109 45.5t45 110.5t-45 111t-109 46h-223z" />
    <glyph glyph-name="S" unicode="S" horiz-adv-x="574" 
d="M301 -11q-97 0 -164.5 44.5t-91.5 120.5l46 27q19 -65 72.5 -103t137.5 -38q85 0 130.5 39t45.5 101q0 58 -44 89t-137 61q-34 11 -49.5 16.5t-44.5 17t-43 20.5t-33.5 24t-28.5 30.5t-16 37t-7 47.5q0 85 60.5 136.5t151.5 51.5q82 0 140 -41t85 -106l-45 -25
q-50 121 -180 121q-72 0 -115 -38t-43 -97q0 -57 40 -85t131 -58q58 -19 90.5 -32.5t70 -37t54.5 -56t17 -75.5q0 -87 -63 -139.5t-167 -52.5z" />
    <glyph glyph-name="T" unicode="T" horiz-adv-x="540" 
d="M517 700v-50h-220v-650h-54v650h-220v50h494z" />
    <glyph glyph-name="U" unicode="U" horiz-adv-x="667" 
d="M333 -11q-116 0 -186 67t-70 178v466h53v-466q0 -88 53 -141t150 -53t150.5 53t53.5 141v466h53v-466q0 -111 -70.5 -178t-186.5 -67z" />
    <glyph glyph-name="V" unicode="V" horiz-adv-x="605" 
d="M274 0l-261 700h58l231 -631l232 631h57l-261 -700h-56z" />
    <glyph glyph-name="W" unicode="W" horiz-adv-x="993" 
d="M236 0l-203 700h56l181 -629l195 629h63l196 -629l180 629h56l-203 -700h-64l-196 631l-197 -631h-64z" />
    <glyph glyph-name="X" unicode="X" horiz-adv-x="573" 
d="M550 0h-61l-202 312l-202 -312h-62l233 360l-220 340h61l190 -293l189 293h61l-220 -340z" />
    <glyph glyph-name="Y" unicode="Y" horiz-adv-x="583" 
d="M573 700l-255 -412v-288h-53v288l-255 412h60l222 -361l221 361h60z" />
    <glyph glyph-name="Z" unicode="Z" horiz-adv-x="523" 
d="M102 50h388v-50h-447v50l378 600h-368v50h427v-50z" />
    <glyph glyph-name="bracketleft" unicode="[" horiz-adv-x="277" 
d="M257 751h-143v-802h143v-49h-194v900h194v-49z" />
    <glyph glyph-name="backslash" unicode="\" horiz-adv-x="527" 
d="M443 -100l-400 900h40l400 -900h-40z" />
    <glyph glyph-name="bracketright" unicode="]" horiz-adv-x="277" 
d="M214 800v-900h-194v49h143v802h-143v49h194z" />
    <glyph glyph-name="asciicircum" unicode="^" horiz-adv-x="502" 
d="M276 700l176 -300h-59l-142 243l-142 -243h-59l176 300h50z" />
    <glyph glyph-name="underscore" unicode="_" horiz-adv-x="507" 
d="M40 -133v48h427v-48h-427z" />
    <glyph glyph-name="grave" unicode="`" horiz-adv-x="180" 
d="M160 570l-80 127h-60l92 -127h48z" />
    <glyph glyph-name="a" unicode="a" horiz-adv-x="645" 
d="M517 500h51v-500h-51v113q-32 -58 -88 -91t-127 -33q-107 0 -183 75.5t-76 185.5t76 185.5t183 75.5q71 0 127 -33t88 -91v113zM306 37q89 0 150 62t61 151t-61 151t-150 62t-150.5 -62t-61.5 -151t61.5 -151t150.5 -62z" />
    <glyph glyph-name="b" unicode="b" horiz-adv-x="645" 
d="M342 511q108 0 183.5 -75.5t75.5 -185.5t-75.5 -185.5t-183.5 -75.5q-71 0 -127.5 34t-87.5 93v-116h-50v700h50v-316q31 59 87.5 93t127.5 34zM339 37q89 0 150.5 62t61.5 151t-61.5 151t-150.5 62t-150.5 -62t-61.5 -151t61.5 -151t150.5 -62z" />
    <glyph glyph-name="c" unicode="c" horiz-adv-x="561" 
d="M306 -11q-113 0 -188 75t-75 186t75 186t188 75q73 0 132 -34.5t86 -93.5l-41 -24q-22 48 -69.5 76t-107.5 28q-90 0 -151 -61.5t-61 -151.5t61 -151.5t151 -61.5q60 0 107.5 28t72.5 76l42 -25q-30 -58 -89.5 -92.5t-132.5 -34.5z" />
    <glyph glyph-name="d" unicode="d" horiz-adv-x="645" 
d="M518 700h50v-700h-50v116q-31 -59 -87.5 -93t-127.5 -34q-108 0 -183.5 75.5t-75.5 185.5t75.5 185.5t183.5 75.5q71 0 127.5 -34t87.5 -93v316zM306 37q89 0 150.5 62t61.5 151t-61.5 151t-150.5 62t-150.5 -62t-61.5 -151t61.5 -151t150.5 -62z" />
    <glyph glyph-name="e" unicode="e" horiz-adv-x="589" 
d="M302 511q110 0 178.5 -78t68.5 -185q0 -4 -0.5 -12t-0.5 -12h-453q9 -84 67.5 -135.5t144.5 -51.5q60 0 105 25t68 66l44 -26q-31 -52 -88 -82.5t-130 -30.5q-115 0 -189 73.5t-74 187.5q0 112 72.5 186.5t186.5 74.5zM302 463q-85 0 -142 -53t-65 -137h402
q-8 89 -63.5 139.5t-131.5 50.5z" />
    <glyph glyph-name="f" unicode="f" horiz-adv-x="313" 
d="M313 663q-149 12 -149 -136v-27h149v-49h-149v-451h-51v451h-86v49h86v27q0 94 51.5 142.5t148.5 41.5v-48z" />
    <glyph glyph-name="g" unicode="g" horiz-adv-x="648" 
d="M521 500h50v-476q0 -109 -71 -172t-178 -63q-86 0 -147 32t-89 88l44 25q48 -97 192 -97q93 0 146 50.5t53 136.5v92q-31 -59 -87.5 -93t-127.5 -34q-108 0 -183.5 75.5t-75.5 185.5t75.5 185.5t183.5 75.5q71 0 127.5 -34t87.5 -93v116zM309 37q89 0 150.5 62t61.5 151
t-61.5 151t-150.5 62t-150.5 -62t-61.5 -151t61.5 -151t150.5 -62z" />
    <glyph glyph-name="h" unicode="h" 
d="M306 511q89 0 141.5 -54.5t52.5 -145.5v-311h-51v311q0 70 -38.5 111t-108.5 41q-77 0 -126 -51t-49 -148v-264h-50v700h50v-295q54 106 179 106z" />
    <glyph glyph-name="i" unicode="i" horiz-adv-x="204" 
d="M102 621q-16 0 -28 11.5t-12 28.5q0 16 12 27.5t28 11.5t28 -11.5t12 -27.5q0 -17 -12 -28.5t-28 -11.5zM77 0v500h50v-500h-50z" />
    <glyph glyph-name="j" unicode="j" horiz-adv-x="223" 
d="M121 700q16 0 28 -11.5t12 -27.5q0 -17 -11.5 -28.5t-28.5 -11.5t-28.5 11.5t-11.5 28.5q0 16 12 27.5t28 11.5zM96 -57v557h50v-557q0 -80 -43 -120.5t-123 -33.5v48q116 -12 116 106z" />
    <glyph glyph-name="k" unicode="k" horiz-adv-x="483" 
d="M460 0h-68l-265 246v-246h-50v700h50v-427l253 227h70l-269 -240z" />
    <glyph glyph-name="l" unicode="l" horiz-adv-x="204" 
d="M77 0v730h50v-730h-50z" />
    <glyph glyph-name="m" unicode="m" horiz-adv-x="857" 
d="M611 511q82 0 132 -51t50 -143v-317h-50v317q0 70 -36.5 108t-96.5 38q-67 0 -108.5 -46t-41.5 -138v-279h-50v317q0 70 -34.5 108t-93.5 38q-66 0 -110.5 -46.5t-44.5 -137.5v-279h-50v500h50v-86q52 97 161 97q55 0 96 -26.5t60 -75.5q26 51 70.5 76.5t96.5 25.5z" />
    <glyph glyph-name="n" unicode="n" 
d="M306 511q89 0 141.5 -54.5t52.5 -145.5v-311h-51v311q0 70 -38.5 111t-108.5 41q-77 0 -126 -51t-49 -148v-264h-50v500h50v-95q54 106 179 106z" />
    <glyph glyph-name="o" unicode="o" horiz-adv-x="611" 
d="M306 -11q-110 0 -186.5 75.5t-76.5 185.5t76.5 185.5t186.5 75.5q109 0 185.5 -75.5t76.5 -185.5t-76.5 -185.5t-185.5 -75.5zM306 37q89 0 150 62t61 151t-61 151t-150 62t-150.5 -62t-61.5 -151t61.5 -151t150.5 -62z" />
    <glyph glyph-name="p" unicode="p" horiz-adv-x="645" 
d="M342 511q108 0 183.5 -75.5t75.5 -185.5t-75.5 -185.5t-183.5 -75.5q-71 0 -127.5 34t-87.5 93v-316h-50v700h50v-116q31 59 87.5 93t127.5 34zM339 37q89 0 150.5 62t61.5 151t-61.5 151t-150.5 62t-150.5 -62t-61.5 -151t61.5 -151t150.5 -62z" />
    <glyph glyph-name="q" unicode="q" horiz-adv-x="645" 
d="M518 500h50v-700h-50v316q-31 -59 -87.5 -93t-127.5 -34q-108 0 -183.5 75.5t-75.5 185.5t75.5 185.5t183.5 75.5q71 0 127.5 -34t87.5 -93v116zM306 37q89 0 150.5 62t61.5 151t-61.5 151t-150.5 62t-150.5 -62t-61.5 -151t61.5 -151t150.5 -62z" />
    <glyph glyph-name="r" unicode="r" horiz-adv-x="318" 
d="M127 402q45 105 167 105v-48q-71 0 -119 -45.5t-48 -135.5v-278h-50v500h50v-98z" />
    <glyph glyph-name="s" unicode="s" horiz-adv-x="458" 
d="M111 369q0 -37 31 -58t75.5 -31.5t89.5 -23.5t76 -43.5t31 -81.5q0 -62 -49.5 -102t-129.5 -40q-72 0 -121.5 30.5t-68.5 80.5l43 25q14 -41 52.5 -64.5t94.5 -23.5t92.5 24.5t36.5 69.5q0 37 -31 59t-76 32.5t-89.5 23.5t-75.5 43t-31 80q0 60 47.5 101t122.5 41
q60 0 104.5 -27t65.5 -73l-42 -24q-15 37 -50 56.5t-78 19.5q-51 0 -85.5 -25.5t-34.5 -68.5z" />
    <glyph glyph-name="t" unicode="t" horiz-adv-x="376" 
d="M333 451h-149v-325q0 -43 16 -62t49 -21.5t84 2.5v-45q-101 -15 -150.5 14t-49.5 112v325h-110v49h110v125l51 15v-140h149v-49z" />
    <glyph glyph-name="u" unicode="u" 
d="M437 500h50v-500h-50v95q-54 -106 -179 -106q-89 0 -141.5 54.5t-52.5 145.5v311h51v-311q0 -70 38.5 -111t108.5 -41q77 0 126 51t49 148v264z" />
    <glyph glyph-name="v" unicode="v" horiz-adv-x="511" 
d="M444 500h53l-211 -500h-61l-212 500h54l188 -448z" />
    <glyph glyph-name="w" unicode="w" horiz-adv-x="770" 
d="M684 500h53l-158 -500h-55l-139 426l-139 -426h-55l-158 500h53l133 -435l140 435h52l140 -435z" />
    <glyph glyph-name="x" unicode="x" horiz-adv-x="507" 
d="M483 0h-61l-169 218l-169 -218h-61l200 257l-188 243h61l157 -203l158 203h60l-187 -242z" />
    <glyph glyph-name="y" unicode="y" horiz-adv-x="510" 
d="M443 500h54l-216 -546q-29 -74 -82 -116.5t-116 -37.5v47q48 -4 86.5 27.5t62.5 89.5l11 27l-230 509h54l202 -445z" />
    <glyph glyph-name="z" unicode="z" horiz-adv-x="477" 
d="M124 49h309v-49h-380v33l300 418h-290v49h360v-33z" />
    <glyph glyph-name="braceleft" unicode="{" horiz-adv-x="349" 
d="M329 -108q-81 -8 -124 30t-43 118v187q0 58 -25.5 79t-83.5 21v48q58 0 83.5 21t25.5 79v187q0 80 43 118t124 30v-49q-60 7 -88 -16t-28 -83v-187q0 -104 -80 -124q80 -20 80 -124v-187q0 -60 28 -83t88 -17v-48z" />
    <glyph glyph-name="bar" unicode="|" horiz-adv-x="224" 
d="M87 -200v920h50v-920h-50z" />
    <glyph glyph-name="braceright" unicode="}" horiz-adv-x="349" 
d="M20 -108v48q60 -6 88 17t28 83v187q0 104 80 124q-80 20 -80 124v187q0 60 -28 83t-88 16v49q81 8 124 -30t43 -118v-187q0 -58 25.5 -79t83.5 -21v-48q-58 0 -83.5 -21t-25.5 -79v-187q0 -80 -43 -118t-124 -30z" />
    <glyph glyph-name="asciitilde" unicode="~" horiz-adv-x="587" 
d="M477 411l46 -22q-10 -34 -29 -58.5t-47.5 -38.5t-71.5 -5t-93 42q-138 91 -173 -40l-46 22q10 34 29.5 58.5t48.5 38t71.5 5t92.5 -41.5q139 -91 172 40z" />
    <glyph glyph-name="exclamdown" unicode="&#xa1;" horiz-adv-x="220" 
d="M110 510q19 0 32 -13t13 -32t-13 -32t-32 -13t-32 13t-13 32t13 32t32 13zM90 320h40l10 -320v-200h-60v200z" />
    <glyph glyph-name="cent" unicode="&#xa2;" horiz-adv-x="561" 
d="M486 241l42 -25q-30 -58 -89.5 -92.5t-132.5 -34.5q-40 0 -74 10l-32 -99h-40l36 111q-70 30 -111.5 94t-41.5 145q0 111 75 186t188 75q25 0 53 -5l31 94h40l-34 -104q91 -32 128 -113l-41 -24q-29 64 -102 91l-133 -405q29 -8 58 -8q60 0 107.5 28t72.5 76zM94 350
q0 -63 32 -114.5t86 -77.5l132 402q-18 3 -38 3q-90 0 -151 -61.5t-61 -151.5z" />
    <glyph glyph-name="sterling" unicode="&#xa3;" horiz-adv-x="590" 
d="M196 51h377v-51h-530v51h100v242h-80v47h80v170q0 94 59 147.5t142 53.5q136 0 187 -130l-43 -25q-37 104 -144 104q-64 0 -106 -39.5t-42 -110.5v-170h241v-47h-241v-242z" />
    <glyph glyph-name="currency" unicode="&#xa4;" horiz-adv-x="553" 
d="M489 350q0 -77 -49 -137l69 -70l-26 -26l-70 70q-59 -48 -137 -48q-77 0 -136 48l-71 -70l-26 26l71 70q-50 58 -50 137t50 137l-71 70l26 26l71 -70q59 48 136 48q78 0 137 -48l70 70l26 -26l-69 -70q49 -60 49 -137zM115 350q0 -68 46.5 -115.5t114.5 -47.5t115 47.5
t47 115.5t-47 115.5t-115 47.5t-114.5 -47.5t-46.5 -115.5z" />
    <glyph glyph-name="yen" unicode="&#xa5;" horiz-adv-x="570" 
d="M573 700l-221 -356h145v-45h-172l-7 -11v-66h179v-44h-179v-178h-53v178h-191v44h191v66l-7 11h-184v45h157l-221 356h60l219 -356h5l219 356h60z" />
    <glyph glyph-name="brokenbar" unicode="&#xa6;" horiz-adv-x="224" 
d="M87 350v370h50v-370h-50zM87 -200v370h50v-370h-50z" />
    <glyph glyph-name="section" unicode="&#xa7;" horiz-adv-x="508" 
d="M399 137q46 -43 46 -103q0 -63 -49 -104.5t-129 -41.5q-154 0 -202 130l43 25q33 -106 159 -106q56 0 91.5 26t35.5 71q0 25 -12.5 45.5t-42 39t-49.5 28t-64 28.5q-36 16 -60 28.5t-50.5 33t-39.5 47t-13 59.5q0 73 70 120q-43 43 -43 101q0 62 47.5 104.5t122.5 42.5
q64 0 110 -30.5t68 -86.5l-41 -23q-37 92 -137 92q-50 0 -84.5 -27t-34.5 -72q0 -31 24.5 -57.5t46.5 -38t77 -35.5q10 -5 15 -7q36 -16 59.5 -29t49.5 -33.5t39 -47t13 -59.5q0 -73 -66 -120zM114 343q0 -45 34.5 -73t97.5 -52q79 -30 114 -51q54 34 54 90q0 45 -33.5 72
t-98.5 54q-74 29 -111 51q-57 -34 -57 -91z" />
    <glyph glyph-name="dieresis" unicode="&#xa8;" horiz-adv-x="293" 
d="M57 577q-16 0 -26.5 10.5t-10.5 25.5q0 16 10.5 26.5t26.5 10.5q15 0 25.5 -10.5t10.5 -26.5q0 -15 -10.5 -25.5t-25.5 -10.5zM237 577q-16 0 -26.5 10.5t-10.5 25.5q0 16 10.5 26.5t26.5 10.5q15 0 25.5 -10.5t10.5 -26.5q0 -15 -10.5 -25.5t-25.5 -10.5z" />
    <glyph glyph-name="copyright" unicode="&#xa9;" horiz-adv-x="817" 
d="M409 -11q-150 0 -256 105.5t-106 255.5t106 255.5t256 105.5t256 -105.5t106 -255.5t-106 -255.5t-256 -105.5zM409 13q139 0 237 98.5t98 238.5t-98 238.5t-237 98.5t-237.5 -98.5t-98.5 -238.5t98.5 -238.5t237.5 -98.5zM412 158q-83 0 -138.5 55.5t-55.5 136.5
t55.5 136.5t138.5 55.5q53 0 96 -25t67 -68l-42 -24q-16 33 -49 51.5t-72 18.5q-63 0 -103.5 -42.5t-40.5 -102.5t40.5 -102.5t103.5 -42.5q40 0 73 18.5t48 52.5l43 -25q-24 -43 -67.5 -68t-96.5 -25z" />
    <glyph glyph-name="guillemotleft" unicode="&#xab;" horiz-adv-x="469" 
d="M249 482l-107 -173l107 -173h-62l-107 173l107 173h62zM389 482l-106 -173l106 -173h-62l-106 173l106 173h62z" />
    <glyph glyph-name="logicalnot" unicode="&#xac;" horiz-adv-x="520" 
d="M63 382h394v-173h-51v124h-343v49z" />
    <glyph glyph-name="registered" unicode="&#xae;" horiz-adv-x="817" 
d="M409 711q150 0 256 -105.5t106 -255.5t-106 -255.5t-256 -105.5t-256 105.5t-106 255.5t106 255.5t256 105.5zM409 13q139 0 237 98.5t98 238.5t-98 238.5t-237 98.5t-237.5 -98.5t-98.5 -238.5t98.5 -238.5t237.5 -98.5zM549 419q0 -82 -75 -106l84 -148h-53l-78 139
h-14h-63v-139h-48v370h111q66 0 101 -34t35 -82zM350 350h65q86 0 86 69q0 32 -22 51t-64 19h-65v-139z" />
    <glyph glyph-name="macron" unicode="&#xaf;" horiz-adv-x="293" 
d="M20 587v44h253v-44h-253z" />
    <glyph glyph-name="degree" unicode="&#xb0;" horiz-adv-x="386" 
d="M193 517q-64 0 -107 42.5t-43 103.5t43 104t107 43t107 -43t43 -104q0 -62 -42.5 -104t-107.5 -42zM193 563q44 0 72 28.5t28 71.5t-28.5 72t-71.5 29t-71.5 -29t-28.5 -72q0 -42 28.5 -71t71.5 -29z" />
    <glyph glyph-name="plusminus" unicode="&#xb1;" horiz-adv-x="533" 
d="M291 438h179v-49h-179v-169h-49v169h-179v49h179v169h49v-169zM63 93v49h407v-49h-407z" />
    <glyph glyph-name="acute" unicode="&#xb4;" horiz-adv-x="180" 
d="M20 570h49l91 127h-60z" />
    <glyph glyph-name="mu" unicode="&#xb5;" horiz-adv-x="607" 
d="M541 49h33v-49h-38q-40 0 -63.5 24.5t-23.5 65.5v3q-55 -104 -178 -104q-97 0 -144 67v-256h-50v700h50v-311q0 -70 39 -111t109 -41q77 0 125.5 51t48.5 148v264h51v-410q0 -19 11 -30t30 -11z" />
    <glyph glyph-name="paragraph" unicode="&#xb6;" horiz-adv-x="570" 
d="M527 700v-47h-60v-853h-50v853h-131v-853h-49v513q-81 0 -137.5 57t-56.5 137t56.5 136.5t137.5 56.5h290z" />
    <glyph glyph-name="periodcentered" unicode="&#xb7;" horiz-adv-x="213" 
d="M107 300q-19 0 -32 13t-13 32t13 32t32 13t32 -13t13 -32t-13 -32t-32 -13z" />
    <glyph glyph-name="cedilla" unicode="&#xb8;" horiz-adv-x="228" 
d="M120 -56q40 -5 65.5 -24.5t25.5 -50.5q0 -95 -195 -80v41q74 -7 112.5 3.5t38.5 35.5q0 43 -92 43v88h45v-56z" />
    <glyph glyph-name="guillemotright" unicode="&#xbb;" horiz-adv-x="469" 
d="M142 482l106 -173l-106 -173h-62l106 173l-106 173h62zM282 482l107 -173l-107 -173h-62l107 173l-107 173h62z" />
    <glyph glyph-name="onequarter" unicode="&#xbc;" horiz-adv-x="829" 
d="M174 300h-48v346l-100 -33l-13 42l123 45h38v-400zM539 700h47l-407 -700h-46zM805 125v-45h-54v-80h-48v80h-213v45l150 275h52l-150 -275h161v104h48v-104h54z" />
    <glyph glyph-name="onehalf" unicode="&#xbd;" horiz-adv-x="815" 
d="M174 300h-48v346l-100 -33l-13 42l123 45h38v-400zM539 700h47l-407 -700h-46zM578 46h204v-46h-275v39l175 163q44 39 44 90q0 32 -22 53t-61 21q-70 0 -95 -66l-40 22q16 42 51 66t84 24q59 0 95 -34.5t36 -85.5q0 -66 -59 -121z" />
    <glyph glyph-name="threequarters" unicode="&#xbe;" horiz-adv-x="932" 
d="M308 415q0 -56 -38.5 -91.5t-103.5 -35.5q-101 0 -138 81l40 23q26 -58 98 -58q46 0 70 22.5t24 58.5t-25 59t-69 23h-4l-23 35l97 122h-196v46h252v-46l-96 -119q53 -7 82.5 -39.5t29.5 -80.5zM642 700h47l-407 -700h-46zM908 125v-45h-54v-80h-48v80h-213v45l150 275
h52l-150 -275h161v104h48v-104h54z" />
    <glyph glyph-name="questiondown" unicode="&#xbf;" horiz-adv-x="530" 
d="M283 510q19 0 32 -13t13 -32t-13 -32t-32 -13t-32 13t-13 32t13 32t32 13zM310 320q0 -49 -20 -90.5t-48.5 -71.5t-56.5 -58t-48 -61.5t-20 -69.5q0 -62 41 -95.5t111 -33.5q60 0 103.5 27.5t59.5 78.5l45 -25q-22 -64 -79 -98t-129 -34q-88 0 -147 47.5t-59 132.5
q0 42 20 79t48.5 66.5t57 58.5t48.5 67t20 80h53z" />
    <glyph glyph-name="Agrave" unicode="&#xc0;" horiz-adv-x="629" 
d="M363 770h-48l-92 127h60zM558 0l-68 178h-351l-68 -178h-56l272 700h56l271 -700h-56zM159 228h312l-156 407z" />
    <glyph glyph-name="Aacute" unicode="&#xc1;" horiz-adv-x="629" 
d="M413 897l-91 -127h-49l80 127h60zM558 0l-68 178h-351l-68 -178h-56l272 700h56l271 -700h-56zM159 228h312l-156 407z" />
    <glyph glyph-name="Acircumflex" unicode="&#xc2;" horiz-adv-x="629" 
d="M315 865l-81 -95h-57l108 127h59l108 -127h-57zM558 0l-68 178h-351l-68 -178h-56l272 700h56l271 -700h-56zM159 228h312l-156 407z" />
    <glyph glyph-name="Atilde" unicode="&#xc3;" horiz-adv-x="629" 
d="M313 811q-42 38 -66 33t-24 -61h-44q0 55 20 82.5t51.5 24.5t66.5 -33q90 -77 90 28h44q0 -81 -43 -101t-95 27zM558 0l-68 178h-351l-68 -178h-56l272 700h56l271 -700h-56zM159 228h312l-156 407z" />
    <glyph glyph-name="Adieresis" unicode="&#xc4;" horiz-adv-x="629" 
d="M225 777q-16 0 -26.5 10.5t-10.5 25.5q0 16 10.5 26.5t26.5 10.5q15 0 25.5 -10.5t10.5 -26.5q0 -15 -10.5 -25.5t-25.5 -10.5zM405 777q-16 0 -26.5 10.5t-10.5 25.5q0 16 10.5 26.5t26.5 10.5q15 0 25.5 -10.5t10.5 -26.5q0 -15 -10.5 -25.5t-25.5 -10.5zM558 0
l-68 178h-351l-68 -178h-56l272 700h56l271 -700h-56zM159 228h312l-156 407z" />
    <glyph glyph-name="Aring" unicode="&#xc5;" horiz-adv-x="629" 
d="M558 0l-68 178h-351l-68 -178h-56l263 676q-31 10 -48.5 34.5t-17.5 56.5q0 42 28.5 69.5t73.5 27.5q46 0 74.5 -27.5t28.5 -69.5q0 -32 -17.5 -56.5t-47.5 -34.5l262 -676h-56zM255 767q0 -25 16 -41t43 -16q28 0 44.5 16t16.5 41t-16.5 41t-44.5 16q-27 0 -43 -16
t-16 -41zM159 228h312l-156 407z" />
    <glyph glyph-name="AE" unicode="&#xc6;" horiz-adv-x="873" 
d="M503 50h326v-50h-380v183h-273l-112 -183h-61l429 700h392v-50h-321v-272h303v-50h-303v-278zM206 233h243v398z" />
    <glyph glyph-name="Ccedilla" unicode="&#xc7;" horiz-adv-x="751" 
d="M713 160q-41 -74 -115 -119.5t-165 -50.5v-46q40 -5 65.5 -24.5t25.5 -50.5q0 -95 -195 -80v41q74 -7 112.5 3.5t38.5 35.5q0 43 -92 43v78q-149 8 -245 111t-96 249q0 152 103 256.5t261 104.5q96 0 176 -45.5t124 -122.5l-47 -27q-35 65 -103 104.5t-150 39.5
q-136 0 -223.5 -89.5t-87.5 -220.5t87.5 -220.5t223.5 -89.5q82 0 151 40t104 107z" />
    <glyph glyph-name="Egrave" unicode="&#xc8;" horiz-adv-x="533" 
d="M334 770h-48l-92 127h60zM140 50h350v-50h-403v700h398v-50h-345v-272h320v-50h-320v-278z" />
    <glyph glyph-name="Eacute" unicode="&#xc9;" horiz-adv-x="533" 
d="M384 897l-91 -127h-49l80 127h60zM140 50h350v-50h-403v700h398v-50h-345v-272h320v-50h-320v-278z" />
    <glyph glyph-name="Ecircumflex" unicode="&#xca;" horiz-adv-x="533" 
d="M286 865l-81 -95h-57l108 127h59l108 -127h-57zM140 50h350v-50h-403v700h398v-50h-345v-272h320v-50h-320v-278z" />
    <glyph glyph-name="Edieresis" unicode="&#xcb;" horiz-adv-x="533" 
d="M196 777q-16 0 -26.5 10.5t-10.5 25.5q0 16 10.5 26.5t26.5 10.5q15 0 25.5 -10.5t10.5 -26.5q0 -15 -10.5 -25.5t-25.5 -10.5zM376 777q-16 0 -26.5 10.5t-10.5 25.5q0 16 10.5 26.5t26.5 10.5q15 0 25.5 -10.5t10.5 -26.5q0 -15 -10.5 -25.5t-25.5 -10.5zM140 50h350
v-50h-403v700h398v-50h-345v-272h320v-50h-320v-278z" />
    <glyph glyph-name="Igrave" unicode="&#xcc;" horiz-adv-x="227" 
d="M161 770l-80 127h-60l92 -127h48zM87 700h53v-700h-53v700z" />
    <glyph glyph-name="Iacute" unicode="&#xcd;" horiz-adv-x="227" 
d="M71 770h49l91 127h-60zM87 700h53v-700h-53v700z" />
    <glyph glyph-name="Icircumflex" unicode="&#xce;" horiz-adv-x="227" 
d="M142 897l108 -127h-57l-80 95l-81 -95h-57l108 127h59zM87 0v700h53v-700h-53z" />
    <glyph glyph-name="Idieresis" unicode="&#xcf;" horiz-adv-x="227" 
d="M23 777q-16 0 -26.5 10.5t-10.5 25.5q0 16 10.5 26.5t26.5 10.5q15 0 25.5 -10.5t10.5 -26.5q0 -15 -10.5 -25.5t-25.5 -10.5zM203 777q-16 0 -26.5 10.5t-10.5 25.5q0 16 10.5 26.5t26.5 10.5q15 0 25.5 -10.5t10.5 -26.5q0 -15 -10.5 -25.5t-25.5 -10.5zM87 700h53
v-700h-53v700z" />
    <glyph glyph-name="Eth" unicode="&#xd0;" horiz-adv-x="747" 
d="M370 700q143 0 236.5 -101.5t93.5 -248.5t-93.5 -248.5t-236.5 -101.5h-263v326h-67v48h67v326h263zM370 50q122 0 200 86.5t78 213.5t-78 213.5t-200 86.5h-210v-276h240v-48h-240v-276h210z" />
    <glyph glyph-name="Ntilde" unicode="&#xd1;" horiz-adv-x="687" 
d="M204 783q0 55 20 82.5t51.5 24.5t66.5 -33q90 -77 90 28h44q0 -81 -43 -101t-95 27q-42 38 -66 33t-24 -61h-44zM547 700h53v-700h-47l-413 602v-602h-53v700h46l414 -602v602z" />
    <glyph glyph-name="Ograve" unicode="&#xd2;" horiz-adv-x="816" 
d="M456 770l-80 127h-60l92 -127h48zM408 -11q-151 0 -256 105.5t-105 255.5t105 255.5t256 105.5t256 -105.5t105 -255.5t-105 -255.5t-256 -105.5zM408 40q129 0 218.5 90.5t89.5 219.5t-89.5 219.5t-218.5 90.5t-218.5 -90.5t-89.5 -219.5t89.5 -219.5t218.5 -90.5z" />
    <glyph glyph-name="Oacute" unicode="&#xd3;" horiz-adv-x="816" 
d="M366 770h49l91 127h-60zM408 -11q-151 0 -256 105.5t-105 255.5t105 255.5t256 105.5t256 -105.5t105 -255.5t-105 -255.5t-256 -105.5zM408 40q129 0 218.5 90.5t89.5 219.5t-89.5 219.5t-218.5 90.5t-218.5 -90.5t-89.5 -219.5t89.5 -219.5t218.5 -90.5z" />
    <glyph glyph-name="Ocircumflex" unicode="&#xd4;" horiz-adv-x="816" 
d="M408 865l-81 -95h-57l108 127h59l108 -127h-57zM408 711q151 0 256 -105.5t105 -255.5t-105 -255.5t-256 -105.5t-256 105.5t-105 255.5t105 255.5t256 105.5zM408 40q129 0 218.5 90.5t89.5 219.5t-89.5 219.5t-218.5 90.5t-218.5 -90.5t-89.5 -219.5t89.5 -219.5
t218.5 -90.5z" />
    <glyph glyph-name="Otilde" unicode="&#xd5;" horiz-adv-x="816" 
d="M272 783q0 55 20 82.5t51.5 24.5t66.5 -33q90 -77 90 28h44q0 -81 -43 -101t-95 27q-42 38 -66 33t-24 -61h-44zM408 -11q-151 0 -256 105.5t-105 255.5t105 255.5t256 105.5t256 -105.5t105 -255.5t-105 -255.5t-256 -105.5zM408 40q129 0 218.5 90.5t89.5 219.5
t-89.5 219.5t-218.5 90.5t-218.5 -90.5t-89.5 -219.5t89.5 -219.5t218.5 -90.5z" />
    <glyph glyph-name="Odieresis" unicode="&#xd6;" horiz-adv-x="816" 
d="M318 777q-16 0 -26.5 10.5t-10.5 25.5q0 16 10.5 26.5t26.5 10.5q15 0 25.5 -10.5t10.5 -26.5q0 -15 -10.5 -25.5t-25.5 -10.5zM498 777q-16 0 -26.5 10.5t-10.5 25.5q0 16 10.5 26.5t26.5 10.5q15 0 25.5 -10.5t10.5 -26.5q0 -15 -10.5 -25.5t-25.5 -10.5zM408 -11
q-151 0 -256 105.5t-105 255.5t105 255.5t256 105.5t256 -105.5t105 -255.5t-105 -255.5t-256 -105.5zM408 40q129 0 218.5 90.5t89.5 219.5t-89.5 219.5t-218.5 90.5t-218.5 -90.5t-89.5 -219.5t89.5 -219.5t218.5 -90.5z" />
    <glyph glyph-name="multiply" unicode="&#xd7;" horiz-adv-x="469" 
d="M412 494l-144 -144l144 -144l-35 -32l-143 143l-143 -143l-34 32l144 144l-144 144l34 32l143 -143l143 143z" />
    <glyph glyph-name="Oslash" unicode="&#xd8;" horiz-adv-x="826" 
d="M669 611q110 -107 110 -261q0 -150 -105 -255.5t-256 -105.5q-124 0 -219 73l-53 -62l-37 21l58 68q-110 107 -110 261q0 150 105 255.5t256 105.5q123 0 220 -73l53 62l36 -21zM110 350q0 -129 91 -222l403 470q-81 62 -186 62q-129 0 -218.5 -90.5t-89.5 -219.5z
M418 40q129 0 218.5 90.5t89.5 219.5q0 130 -91 221l-402 -470q82 -61 185 -61z" />
    <glyph glyph-name="Ugrave" unicode="&#xd9;" horiz-adv-x="667" 
d="M380 770l-80 127h-60l92 -127h48zM333 -11q-116 0 -186 67t-70 178v466h53v-466q0 -88 53 -141t150 -53t150.5 53t53.5 141v466h53v-466q0 -111 -70.5 -178t-186.5 -67z" />
    <glyph glyph-name="Uacute" unicode="&#xda;" horiz-adv-x="667" 
d="M290 770h49l91 127h-60zM333 -11q-116 0 -186 67t-70 178v466h53v-466q0 -88 53 -141t150 -53t150.5 53t53.5 141v466h53v-466q0 -111 -70.5 -178t-186.5 -67z" />
    <glyph glyph-name="Ucircumflex" unicode="&#xdb;" horiz-adv-x="667" 
d="M332 865l-81 -95h-57l108 127h59l108 -127h-57zM537 700h53v-466q0 -111 -70.5 -178t-186.5 -67t-186 67t-70 178v466h53v-466q0 -88 53 -141t150 -53t150.5 53t53.5 141v466z" />
    <glyph glyph-name="Udieresis" unicode="&#xdc;" horiz-adv-x="667" 
d="M242 777q-16 0 -26.5 10.5t-10.5 25.5q0 16 10.5 26.5t26.5 10.5q15 0 25.5 -10.5t10.5 -26.5q0 -15 -10.5 -25.5t-25.5 -10.5zM422 777q-16 0 -26.5 10.5t-10.5 25.5q0 16 10.5 26.5t26.5 10.5q15 0 25.5 -10.5t10.5 -26.5q0 -15 -10.5 -25.5t-25.5 -10.5zM333 -11
q-116 0 -186 67t-70 178v466h53v-466q0 -88 53 -141t150 -53t150.5 53t53.5 141v466h53v-466q0 -111 -70.5 -178t-186.5 -67z" />
    <glyph glyph-name="Yacute" unicode="&#xdd;" horiz-adv-x="583" 
d="M387 897l-91 -127h-49l80 127h60zM573 700l-255 -412v-288h-53v288l-255 412h60l222 -361l221 361h60z" />
    <glyph glyph-name="Thorn" unicode="&#xde;" horiz-adv-x="587" 
d="M325 567q94 0 156 -62t62 -155t-62 -155t-156 -62h-185v-133h-53v700h53v-133h185zM325 183q72 0 118.5 47.5t46.5 119.5q0 73 -46.5 120t-118.5 47h-185v-334h185z" />
    <glyph glyph-name="germandbls" unicode="&#xdf;" horiz-adv-x="516" 
d="M290 -4v46q71 -4 111.5 21.5t40.5 77.5q0 33 -23 69.5t-50.5 63t-50.5 59.5t-23 61q0 21 14 42.5t31.5 37.5t31.5 39t14 45q0 47 -32 76t-86 29q-62 0 -101.5 -37.5t-39.5 -109.5v-516h-50v516q0 91 53 143t138 52q79 0 124 -44t45 -109q0 -27 -14.5 -53t-31.5 -42.5
t-31.5 -35t-14.5 -33.5q0 -18 15 -39.5t37 -43.5t44 -46.5t37 -57t15 -66.5q0 -70 -54 -110t-149 -35z" />
    <glyph glyph-name="agrave" unicode="&#xe0;" horiz-adv-x="645" 
d="M355 570h-48l-92 127h60zM517 500h51v-500h-51v113q-32 -58 -88 -91t-127 -33q-107 0 -183 75.5t-76 185.5t76 185.5t183 75.5q71 0 127 -33t88 -91v113zM306 37q89 0 150 62t61 151t-61 151t-150 62t-150.5 -62t-61.5 -151t61.5 -151t150.5 -62z" />
    <glyph glyph-name="aacute" unicode="&#xe1;" horiz-adv-x="645" 
d="M405 697l-91 -127h-49l80 127h60zM517 500h51v-500h-51v113q-32 -58 -88 -91t-127 -33q-107 0 -183 75.5t-76 185.5t76 185.5t183 75.5q71 0 127 -33t88 -91v113zM306 37q89 0 150 62t61 151t-61 151t-150 62t-150.5 -62t-61.5 -151t61.5 -151t150.5 -62z" />
    <glyph glyph-name="acircumflex" unicode="&#xe2;" horiz-adv-x="645" 
d="M307 665l-81 -95h-57l108 127h59l108 -127h-57zM517 500h51v-500h-51v113q-32 -58 -88 -91t-127 -33q-107 0 -183 75.5t-76 185.5t76 185.5t183 75.5q71 0 127 -33t88 -91v113zM306 37q89 0 150 62t61 151t-61 151t-150 62t-150.5 -62t-61.5 -151t61.5 -151t150.5 -62z
" />
    <glyph glyph-name="atilde" unicode="&#xe3;" horiz-adv-x="645" 
d="M305 611q-42 38 -66 33t-24 -61h-44q0 55 20 82.5t51.5 24.5t66.5 -33q90 -77 90 28h44q0 -81 -43 -101t-95 27zM517 500h51v-500h-51v113q-32 -58 -88 -91t-127 -33q-107 0 -183 75.5t-76 185.5t76 185.5t183 75.5q71 0 127 -33t88 -91v113zM306 37q89 0 150 62t61 151
t-61 151t-150 62t-150.5 -62t-61.5 -151t61.5 -151t150.5 -62z" />
    <glyph glyph-name="adieresis" unicode="&#xe4;" horiz-adv-x="645" 
d="M217 577q-16 0 -26.5 10.5t-10.5 25.5q0 16 10.5 26.5t26.5 10.5q15 0 25.5 -10.5t10.5 -26.5q0 -15 -10.5 -25.5t-25.5 -10.5zM397 577q-16 0 -26.5 10.5t-10.5 25.5q0 16 10.5 26.5t26.5 10.5q15 0 25.5 -10.5t10.5 -26.5q0 -15 -10.5 -25.5t-25.5 -10.5zM517 500h51
v-500h-51v113q-32 -58 -88 -91t-127 -33q-107 0 -183 75.5t-76 185.5t76 185.5t183 75.5q71 0 127 -33t88 -91v113zM306 37q89 0 150 62t61 151t-61 151t-150 62t-150.5 -62t-61.5 -151t61.5 -151t150.5 -62z" />
    <glyph glyph-name="aring" unicode="&#xe5;" horiz-adv-x="645" 
d="M307 553q-45 0 -73.5 27.5t-28.5 69.5t28.5 69.5t73.5 27.5q46 0 74.5 -27.5t28.5 -69.5t-28.5 -69.5t-74.5 -27.5zM307 707q-27 0 -43 -16t-16 -41t16 -41t43 -16q28 0 44.5 16t16.5 41t-16.5 41t-44.5 16zM517 500h51v-500h-51v113q-32 -58 -88 -91t-127 -33
q-107 0 -183 75.5t-76 185.5t76 185.5t183 75.5q71 0 127 -33t88 -91v113zM306 37q89 0 150 62t61 151t-61 151t-150 62t-150.5 -62t-61.5 -151t61.5 -151t150.5 -62z" />
    <glyph glyph-name="ae" unicode="&#xe6;" horiz-adv-x="1061" 
d="M777 511q113 0 178.5 -77t65.5 -186q0 -4 -0.5 -12t-0.5 -12h-451q8 -85 65 -136t143 -51q62 0 108 25t69 66l44 -26q-31 -52 -87.5 -82.5t-127.5 -30.5q-75 0 -130.5 33t-85.5 92v-114h-50v113q-32 -58 -88 -91t-127 -33q-107 0 -183 75.5t-76 185.5t76 185.5t183 75.5
q71 0 127 -33t88 -91v113h50v-116q29 59 83 93t127 34zM306 37q89 0 150 62t61 151t-61 151t-150 62t-150.5 -62t-61.5 -151t61.5 -151t150.5 -62zM775 463q-87 0 -142.5 -53t-63.5 -137h401q-8 89 -62.5 139.5t-132.5 50.5z" />
    <glyph glyph-name="ccedilla" unicode="&#xe7;" horiz-adv-x="561" 
d="M528 116q-28 -53 -81 -87t-119 -39v-46q40 -5 65.5 -24.5t25.5 -50.5q0 -95 -195 -80v41q74 -7 112.5 3.5t38.5 35.5q0 43 -92 43v78q-104 8 -172 81.5t-68 178.5q0 111 75 186t188 75q73 0 132 -34.5t86 -93.5l-41 -24q-22 48 -69.5 76t-107.5 28q-90 0 -151 -61.5
t-61 -151.5t61 -151.5t151 -61.5q60 0 107.5 28t72.5 76z" />
    <glyph glyph-name="egrave" unicode="&#xe8;" horiz-adv-x="589" 
d="M344 570h-48l-92 127h60zM302 511q110 0 178.5 -78t68.5 -185q0 -4 -0.5 -12t-0.5 -12h-453q9 -84 67.5 -135.5t144.5 -51.5q60 0 105 25t68 66l44 -26q-31 -52 -88 -82.5t-130 -30.5q-115 0 -189 73.5t-74 187.5q0 112 72.5 186.5t186.5 74.5zM302 463q-85 0 -142 -53
t-65 -137h402q-8 89 -63.5 139.5t-131.5 50.5z" />
    <glyph glyph-name="eacute" unicode="&#xe9;" horiz-adv-x="589" 
d="M394 697l-91 -127h-49l80 127h60zM302 511q110 0 178.5 -78t68.5 -185q0 -4 -0.5 -12t-0.5 -12h-453q9 -84 67.5 -135.5t144.5 -51.5q60 0 105 25t68 66l44 -26q-31 -52 -88 -82.5t-130 -30.5q-115 0 -189 73.5t-74 187.5q0 112 72.5 186.5t186.5 74.5zM302 463
q-85 0 -142 -53t-65 -137h402q-8 89 -63.5 139.5t-131.5 50.5z" />
    <glyph glyph-name="ecircumflex" unicode="&#xea;" horiz-adv-x="589" 
d="M296 665l-81 -95h-57l108 127h59l108 -127h-57zM302 511q110 0 178.5 -78t68.5 -185q0 -4 -0.5 -12t-0.5 -12h-453q9 -84 67.5 -135.5t144.5 -51.5q60 0 105 25t68 66l44 -26q-31 -52 -88 -82.5t-130 -30.5q-115 0 -189 73.5t-74 187.5q0 112 72.5 186.5t186.5 74.5z
M302 463q-85 0 -142 -53t-65 -137h402q-8 89 -63.5 139.5t-131.5 50.5z" />
    <glyph glyph-name="edieresis" unicode="&#xeb;" horiz-adv-x="589" 
d="M206 577q-16 0 -26.5 10.5t-10.5 25.5q0 16 10.5 26.5t26.5 10.5q15 0 25.5 -10.5t10.5 -26.5q0 -15 -10.5 -25.5t-25.5 -10.5zM386 577q-16 0 -26.5 10.5t-10.5 25.5q0 16 10.5 26.5t26.5 10.5q15 0 25.5 -10.5t10.5 -26.5q0 -15 -10.5 -25.5t-25.5 -10.5zM302 511
q110 0 178.5 -78t68.5 -185q0 -4 -0.5 -12t-0.5 -12h-453q9 -84 67.5 -135.5t144.5 -51.5q60 0 105 25t68 66l44 -26q-31 -52 -88 -82.5t-130 -30.5q-115 0 -189 73.5t-74 187.5q0 112 72.5 186.5t186.5 74.5zM302 463q-85 0 -142 -53t-65 -137h402q-8 89 -63.5 139.5
t-131.5 50.5z" />
    <glyph glyph-name="igrave" unicode="&#xec;" horiz-adv-x="204" 
d="M128 570l-55 127h-60l66 -127h49zM127 0h-50v500h50v-500z" />
    <glyph glyph-name="iacute" unicode="&#xed;" horiz-adv-x="204" 
d="M75 570h49l67 127h-61zM77 0v500h50v-500h-50z" />
    <glyph glyph-name="icircumflex" unicode="&#xee;" horiz-adv-x="204" 
d="M132 697l84 -127h-57l-57 86l-57 -86h-57l84 127h60zM77 0v500h50v-500h-50z" />
    <glyph glyph-name="idieresis" unicode="&#xef;" horiz-adv-x="204" 
d="M35 577q-15 0 -25.5 10.5t-10.5 25.5q0 16 10.5 26.5t25.5 10.5q16 0 26.5 -10.5t10.5 -26.5q0 -15 -10.5 -25.5t-26.5 -10.5zM169 577q-16 0 -26.5 10.5t-10.5 25.5q0 16 10.5 26.5t26.5 10.5q15 0 25.5 -10.5t10.5 -26.5q0 -15 -10.5 -25.5t-25.5 -10.5zM77 0v500h50
v-500h-50z" />
    <glyph glyph-name="eth" unicode="&#xf0;" horiz-adv-x="587" 
d="M498 370q46 -62 46 -140q0 -107 -73.5 -174t-176.5 -67t-177 67t-74 174q0 103 72.5 169t170.5 66q55 0 99 -22l-103 137l-119 -73v46l96 59l-66 88h59l47 -63l111 68v-46l-87 -54zM294 37q84 0 141.5 54t57.5 139q0 68 -33 112q-57 75 -166 75q-86 0 -143 -52.5
t-57 -134.5q0 -85 58 -139t142 -54z" />
    <glyph glyph-name="ntilde" unicode="&#xf1;" 
d="M290 611q-42 38 -66 33t-24 -61h-44q0 55 20 82.5t51.5 24.5t66.5 -33q90 -77 90 28h44q0 -81 -43 -101t-95 27zM306 511q89 0 141.5 -54.5t52.5 -145.5v-311h-51v311q0 70 -38.5 111t-108.5 41q-77 0 -126 -51t-49 -148v-264h-50v500h50v-95q54 106 179 106z" />
    <glyph glyph-name="ograve" unicode="&#xf2;" horiz-adv-x="611" 
d="M351 570l-80 127h-60l92 -127h48zM306 -11q-110 0 -186.5 75.5t-76.5 185.5t76.5 185.5t186.5 75.5q109 0 185.5 -75.5t76.5 -185.5t-76.5 -185.5t-185.5 -75.5zM306 37q89 0 150 62t61 151t-61 151t-150 62t-150.5 -62t-61.5 -151t61.5 -151t150.5 -62z" />
    <glyph glyph-name="oacute" unicode="&#xf3;" horiz-adv-x="611" 
d="M261 570h49l91 127h-60zM306 -11q-110 0 -186.5 75.5t-76.5 185.5t76.5 185.5t186.5 75.5q109 0 185.5 -75.5t76.5 -185.5t-76.5 -185.5t-185.5 -75.5zM306 37q89 0 150 62t61 151t-61 151t-150 62t-150.5 -62t-61.5 -151t61.5 -151t150.5 -62z" />
    <glyph glyph-name="ocircumflex" unicode="&#xf4;" horiz-adv-x="611" 
d="M303 665l-81 -95h-57l108 127h59l108 -127h-57zM306 511q109 0 185.5 -75.5t76.5 -185.5t-76.5 -185.5t-185.5 -75.5q-110 0 -186.5 75.5t-76.5 185.5t76.5 185.5t186.5 75.5zM306 37q89 0 150 62t61 151t-61 151t-150 62t-150.5 -62t-61.5 -151t61.5 -151t150.5 -62z
" />
    <glyph glyph-name="otilde" unicode="&#xf5;" horiz-adv-x="611" 
d="M167 583q0 55 20 82.5t51.5 24.5t66.5 -33q90 -77 90 28h44q0 -81 -43 -101t-95 27q-42 38 -66 33t-24 -61h-44zM306 -11q-110 0 -186.5 75.5t-76.5 185.5t76.5 185.5t186.5 75.5q109 0 185.5 -75.5t76.5 -185.5t-76.5 -185.5t-185.5 -75.5zM306 37q89 0 150 62t61 151
t-61 151t-150 62t-150.5 -62t-61.5 -151t61.5 -151t150.5 -62z" />
    <glyph glyph-name="odieresis" unicode="&#xf6;" horiz-adv-x="611" 
d="M213 577q-16 0 -26.5 10.5t-10.5 25.5q0 16 10.5 26.5t26.5 10.5q15 0 25.5 -10.5t10.5 -26.5q0 -15 -10.5 -25.5t-25.5 -10.5zM393 577q-16 0 -26.5 10.5t-10.5 25.5q0 16 10.5 26.5t26.5 10.5q15 0 25.5 -10.5t10.5 -26.5q0 -15 -10.5 -25.5t-25.5 -10.5zM306 -11
q-110 0 -186.5 75.5t-76.5 185.5t76.5 185.5t186.5 75.5q109 0 185.5 -75.5t76.5 -185.5t-76.5 -185.5t-185.5 -75.5zM306 37q89 0 150 62t61 151t-61 151t-150 62t-150.5 -62t-61.5 -151t61.5 -151t150.5 -62z" />
    <glyph glyph-name="divide" unicode="&#xf7;" horiz-adv-x="580" 
d="M290 492q-19 0 -32 13t-13 32t13 32t32 13t32 -13t13 -32t-13 -32t-32 -13zM63 326v48h454v-48h-454zM290 118q-19 0 -32 13t-13 32t13 32t32 13t32 -13t13 -32t-13 -32t-32 -13z" />
    <glyph glyph-name="oslash" unicode="&#xf8;" horiz-adv-x="611" 
d="M495 433q73 -76 73 -183q0 -110 -76.5 -185.5t-185.5 -75.5q-92 0 -163 55l-42 -47l-31 18l47 52q-74 74 -74 183q0 110 76.5 185.5t186.5 75.5q91 0 162 -55l42 47l32 -18zM94 250q0 -85 56 -146l285 316q-56 43 -129 43q-89 0 -150.5 -62t-61.5 -151zM306 37
q89 0 150 62t61 151q0 85 -56 146l-285 -316q57 -43 130 -43z" />
    <glyph glyph-name="ugrave" unicode="&#xf9;" 
d="M322 570h-48l-92 127h60zM437 500h50v-500h-50v95q-54 -106 -179 -106q-89 0 -141.5 54.5t-52.5 145.5v311h51v-311q0 -70 38.5 -111t108.5 -41q77 0 126 51t49 148v264z" />
    <glyph glyph-name="uacute" unicode="&#xfa;" 
d="M372 697l-91 -127h-49l80 127h60zM437 500h50v-500h-50v95q-54 -106 -179 -106q-89 0 -141.5 54.5t-52.5 145.5v311h51v-311q0 -70 38.5 -111t108.5 -41q77 0 126 51t49 148v264z" />
    <glyph glyph-name="ucircumflex" unicode="&#xfb;" 
d="M274 665l-81 -95h-57l108 127h59l108 -127h-57zM437 500h50v-500h-50v95q-54 -106 -179 -106q-89 0 -141.5 54.5t-52.5 145.5v311h51v-311q0 -70 38.5 -111t108.5 -41q77 0 126 51t49 148v264z" />
    <glyph glyph-name="udieresis" unicode="&#xfc;" 
d="M184 577q-16 0 -26.5 10.5t-10.5 25.5q0 16 10.5 26.5t26.5 10.5q15 0 25.5 -10.5t10.5 -26.5q0 -15 -10.5 -25.5t-25.5 -10.5zM364 577q-16 0 -26.5 10.5t-10.5 25.5q0 16 10.5 26.5t26.5 10.5q15 0 25.5 -10.5t10.5 -26.5q0 -15 -10.5 -25.5t-25.5 -10.5zM437 500h50
v-500h-50v95q-54 -106 -179 -106q-89 0 -141.5 54.5t-52.5 145.5v311h51v-311q0 -70 38.5 -111t108.5 -41q77 0 126 51t49 148v264z" />
    <glyph glyph-name="yacute" unicode="&#xfd;" horiz-adv-x="510" 
d="M356 697l-91 -127h-49l80 127h60zM443 500h54l-216 -546q-29 -74 -82 -116.5t-116 -37.5v47q48 -4 86.5 27.5t62.5 89.5l11 27l-230 509h54l202 -445z" />
    <glyph glyph-name="thorn" unicode="&#xfe;" horiz-adv-x="645" 
d="M342 511q108 0 183.5 -75.5t75.5 -185.5t-75.5 -185.5t-183.5 -75.5q-71 0 -127.5 34t-87.5 93v-316h-50v900h50v-316q31 59 87.5 93t127.5 34zM339 37q89 0 150.5 62t61.5 151t-61.5 151t-150.5 62t-150.5 -62t-61.5 -151t61.5 -151t150.5 -62z" />
    <glyph glyph-name="ydieresis" unicode="&#xff;" horiz-adv-x="510" 
d="M168 577q-16 0 -26.5 10.5t-10.5 25.5q0 16 10.5 26.5t26.5 10.5q15 0 25.5 -10.5t10.5 -26.5q0 -15 -10.5 -25.5t-25.5 -10.5zM348 577q-16 0 -26.5 10.5t-10.5 25.5q0 16 10.5 26.5t26.5 10.5q15 0 25.5 -10.5t10.5 -26.5q0 -15 -10.5 -25.5t-25.5 -10.5zM443 500h54
l-216 -546q-29 -74 -82 -116.5t-116 -37.5v47q48 -4 86.5 27.5t62.5 89.5l11 27l-230 509h54l202 -445z" />
    <glyph glyph-name="Amacron" unicode="&#x100;" horiz-adv-x="629" 
d="M441 831v-44h-253v44h253zM558 0l-68 178h-351l-68 -178h-56l272 700h56l271 -700h-56zM159 228h312l-156 407z" />
    <glyph glyph-name="amacron" unicode="&#x101;" horiz-adv-x="645" 
d="M433 631v-44h-253v44h253zM517 500h51v-500h-51v113q-32 -58 -88 -91t-127 -33q-107 0 -183 75.5t-76 185.5t76 185.5t183 75.5q71 0 127 -33t88 -91v113zM306 37q89 0 150 62t61 151t-61 151t-150 62t-150.5 -62t-61.5 -151t61.5 -151t150.5 -62z" />
    <glyph glyph-name="Abreve" unicode="&#x102;" horiz-adv-x="629" 
d="M315 765q-61 0 -97 32.5t-36 89.5h48q0 -78 85 -78t85 78h48q0 -57 -36 -89.5t-97 -32.5zM558 0l-68 178h-351l-68 -178h-56l272 700h56l271 -700h-56zM159 228h312l-156 407z" />
    <glyph glyph-name="abreve" unicode="&#x103;" horiz-adv-x="645" 
d="M307 565q-61 0 -97 32.5t-36 89.5h48q0 -78 85 -78t85 78h48q0 -57 -36 -89.5t-97 -32.5zM517 500h51v-500h-51v113q-32 -58 -88 -91t-127 -33q-107 0 -183 75.5t-76 185.5t76 185.5t183 75.5q71 0 127 -33t88 -91v113zM306 37q89 0 150 62t61 151t-61 151t-150 62
t-150.5 -62t-61.5 -151t61.5 -151t150.5 -62z" />
    <glyph glyph-name="Aogonek" unicode="&#x104;" horiz-adv-x="629" 
d="M531 -131q0 -37 40 -37q23 0 43 9v-42q-21 -10 -54 -10q-37 0 -57.5 19.5t-20.5 52.5q0 65 77 139h-1l-68 178h-351l-68 -178h-56l272 700h56l271 -700q-83 -75 -83 -131zM159 228h312l-156 407z" />
    <glyph glyph-name="aogonek" unicode="&#x105;" horiz-adv-x="645" 
d="M568 0q-83 -75 -83 -131q0 -37 40 -37q22 0 43 9v-42q-23 -10 -54 -10q-37 0 -57.5 19.5t-20.5 52.5q0 67 81 149v103q-32 -58 -88 -91t-127 -33q-107 0 -183 75.5t-76 185.5t76 185.5t183 75.5q71 0 127 -33t88 -91v113h51v-500zM306 37q89 0 150 62t61 151t-61 151
t-150 62t-150.5 -62t-61.5 -151t61.5 -151t150.5 -62z" />
    <glyph glyph-name="Cacute" unicode="&#x106;" horiz-adv-x="751" 
d="M369 770h49l91 127h-60zM411 -11q-158 0 -261 104.5t-103 256.5t103 256.5t261 104.5q96 0 176 -45.5t124 -122.5l-47 -27q-35 65 -103 104.5t-150 39.5q-136 0 -223.5 -89.5t-87.5 -220.5t87.5 -220.5t223.5 -89.5q82 0 151 40t104 107l47 -27q-43 -78 -124 -124.5
t-178 -46.5z" />
    <glyph glyph-name="cacute" unicode="&#x107;" horiz-adv-x="561" 
d="M257 570h49l91 127h-60zM306 -11q-113 0 -188 75t-75 186t75 186t188 75q73 0 132 -34.5t86 -93.5l-41 -24q-22 48 -69.5 76t-107.5 28q-90 0 -151 -61.5t-61 -151.5t61 -151.5t151 -61.5q60 0 107.5 28t72.5 76l42 -25q-30 -58 -89.5 -92.5t-132.5 -34.5z" />
    <glyph glyph-name="Cdotaccent" unicode="&#x10a;" horiz-adv-x="751" 
d="M411 773q-20 0 -33.5 13.5t-13.5 33.5t13.5 33.5t33.5 13.5q19 0 32.5 -13.5t13.5 -33.5t-13.5 -33.5t-32.5 -13.5zM411 -11q-158 0 -261 104.5t-103 256.5t103 256.5t261 104.5q96 0 176 -45.5t124 -122.5l-47 -27q-35 65 -103 104.5t-150 39.5q-136 0 -223.5 -89.5
t-87.5 -220.5t87.5 -220.5t223.5 -89.5q82 0 151 40t104 107l47 -27q-43 -78 -124 -124.5t-178 -46.5z" />
    <glyph glyph-name="cdotaccent" unicode="&#x10b;" horiz-adv-x="561" 
d="M299 573q-20 0 -33.5 13.5t-13.5 33.5t13.5 33.5t33.5 13.5q19 0 32.5 -13.5t13.5 -33.5t-13.5 -33.5t-32.5 -13.5zM306 -11q-113 0 -188 75t-75 186t75 186t188 75q73 0 132 -34.5t86 -93.5l-41 -24q-22 48 -69.5 76t-107.5 28q-90 0 -151 -61.5t-61 -151.5t61 -151.5
t151 -61.5q60 0 107.5 28t72.5 76l42 -25q-30 -58 -89.5 -92.5t-132.5 -34.5z" />
    <glyph glyph-name="Ccaron" unicode="&#x10c;" horiz-adv-x="751" 
d="M381 770l-108 127h58l80 -95l80 95h58l-108 -127h-60zM666 187l47 -27q-43 -78 -124 -124.5t-178 -46.5q-158 0 -261 104.5t-103 256.5t103 256.5t261 104.5q96 0 176 -45.5t124 -122.5l-47 -27q-35 65 -103 104.5t-150 39.5q-136 0 -223.5 -89.5t-87.5 -220.5
t87.5 -220.5t223.5 -89.5q82 0 151 40t104 107z" />
    <glyph glyph-name="ccaron" unicode="&#x10d;" horiz-adv-x="561" 
d="M269 570l-108 127h58l80 -95l80 95h58l-108 -127h-60zM486 141l42 -25q-30 -58 -89.5 -92.5t-132.5 -34.5q-113 0 -188 75t-75 186t75 186t188 75q73 0 132 -34.5t86 -93.5l-41 -24q-22 48 -69.5 76t-107.5 28q-90 0 -151 -61.5t-61 -151.5t61 -151.5t151 -61.5
q60 0 107.5 28t72.5 76z" />
    <glyph glyph-name="Dcaron" unicode="&#x10e;" horiz-adv-x="727" 
d="M320 770l-108 127h58l80 -95l80 95h58l-108 -127h-60zM350 700q143 0 236.5 -101.5t93.5 -248.5t-93.5 -248.5t-236.5 -101.5h-263v700h263zM350 50q122 0 200 86.5t78 213.5t-78 213.5t-200 86.5h-210v-600h210z" />
    <glyph glyph-name="dcaron" unicode="&#x10f;" horiz-adv-x="697" 
d="M518 384v316h50v-700h-50v116q-31 -59 -87.5 -93t-127.5 -34q-108 0 -183.5 75.5t-75.5 185.5t75.5 185.5t183.5 75.5q71 0 127.5 -34t87.5 -93zM653 700h50l-24 -170h-36zM306 37q89 0 150.5 62t61.5 151t-61.5 151t-150.5 62t-150.5 -62t-61.5 -151t61.5 -151
t150.5 -62z" />
    <glyph glyph-name="Dcroat" unicode="&#x110;" horiz-adv-x="747" 
d="M370 700q143 0 236.5 -101.5t93.5 -248.5t-93.5 -248.5t-236.5 -101.5h-263v326h-67v48h67v326h263zM370 50q122 0 200 86.5t78 213.5t-78 213.5t-200 86.5h-210v-276h240v-48h-240v-276h210z" />
    <glyph glyph-name="dcroat" unicode="&#x111;" horiz-adv-x="653" 
d="M636 624v-42h-68v-582h-51v114q-31 -58 -87.5 -91.5t-127.5 -33.5q-107 0 -183 75.5t-76 185.5t76 185.5t183 75.5q71 0 127.5 -33.5t87.5 -91.5v196h-201v42h201v76h51v-76h68zM306 37q89 0 150 62t61 151t-61 151t-150 62t-150.5 -62t-61.5 -151t61.5 -151t150.5 -62z
" />
    <glyph glyph-name="Emacron" unicode="&#x112;" horiz-adv-x="533" 
d="M412 831v-44h-253v44h253zM140 50h350v-50h-403v700h398v-50h-345v-272h320v-50h-320v-278z" />
    <glyph glyph-name="emacron" unicode="&#x113;" horiz-adv-x="589" 
d="M422 631v-44h-253v44h253zM302 511q110 0 178.5 -78t68.5 -185q0 -4 -0.5 -12t-0.5 -12h-453q9 -84 67.5 -135.5t144.5 -51.5q60 0 105 25t68 66l44 -26q-31 -52 -88 -82.5t-130 -30.5q-115 0 -189 73.5t-74 187.5q0 112 72.5 186.5t186.5 74.5zM302 463q-85 0 -142 -53
t-65 -137h402q-8 89 -63.5 139.5t-131.5 50.5z" />
    <glyph glyph-name="Edotaccent" unicode="&#x116;" horiz-adv-x="533" 
d="M286 773q-20 0 -33.5 13.5t-13.5 33.5t13.5 33.5t33.5 13.5q19 0 32.5 -13.5t13.5 -33.5t-13.5 -33.5t-32.5 -13.5zM140 50h350v-50h-403v700h398v-50h-345v-272h320v-50h-320v-278z" />
    <glyph glyph-name="edotaccent" unicode="&#x117;" horiz-adv-x="589" 
d="M296 573q-20 0 -33.5 13.5t-13.5 33.5t13.5 33.5t33.5 13.5q19 0 32.5 -13.5t13.5 -33.5t-13.5 -33.5t-32.5 -13.5zM302 511q110 0 178.5 -78t68.5 -185q0 -4 -0.5 -12t-0.5 -12h-453q9 -84 67.5 -135.5t144.5 -51.5q60 0 105 25t68 66l44 -26q-31 -52 -88 -82.5
t-130 -30.5q-115 0 -189 73.5t-74 187.5q0 112 72.5 186.5t186.5 74.5zM302 463q-85 0 -142 -53t-65 -137h402q-8 89 -63.5 139.5t-131.5 50.5z" />
    <glyph glyph-name="Eogonek" unicode="&#x118;" horiz-adv-x="534" 
d="M489 0q-83 -75 -83 -131q0 -37 41 -37q22 0 43 9v-42q-23 -10 -54 -10q-38 0 -58.5 19.5t-20.5 52.5q0 67 79 139h-349v700h398v-50h-345v-272h320v-50h-320v-278h350v-50h-1z" />
    <glyph glyph-name="eogonek" unicode="&#x119;" horiz-adv-x="589" 
d="M302 511q110 0 178.5 -78t68.5 -185q0 -4 -0.5 -12t-0.5 -12h-453q9 -84 67.5 -135.5t144.5 -51.5q60 0 105 25t68 66l44 -26q-19 -30 -39 -47q-67 -75 -94.5 -116.5t-27.5 -69.5q0 -37 41 -37q22 0 43 9v-42q-23 -10 -55 -10q-37 0 -57.5 19.5t-20.5 52.5q0 62 75 140
q-37 -12 -83 -12q-115 0 -189 73.5t-74 187.5q0 112 72.5 186.5t186.5 74.5zM302 463q-85 0 -142 -53t-65 -137h402q-8 89 -63.5 139.5t-131.5 50.5z" />
    <glyph glyph-name="Ecaron" unicode="&#x11a;" horiz-adv-x="533" 
d="M256 770l-108 127h58l80 -95l80 95h58l-108 -127h-60zM140 50h350v-50h-403v700h398v-50h-345v-272h320v-50h-320v-278z" />
    <glyph glyph-name="ecaron" unicode="&#x11b;" horiz-adv-x="589" 
d="M266 570l-108 127h58l80 -95l80 95h58l-108 -127h-60zM302 511q110 0 178.5 -78t68.5 -185q0 -4 -0.5 -12t-0.5 -12h-453q9 -84 67.5 -135.5t144.5 -51.5q60 0 105 25t68 66l44 -26q-31 -52 -88 -82.5t-130 -30.5q-115 0 -189 73.5t-74 187.5q0 112 72.5 186.5
t186.5 74.5zM302 463q-85 0 -142 -53t-65 -137h402q-8 89 -63.5 139.5t-131.5 50.5z" />
    <glyph glyph-name="Gbreve" unicode="&#x11e;" horiz-adv-x="799" 
d="M401 765q-61 0 -97 32.5t-36 89.5h48q0 -78 85 -78t85 78h48q0 -57 -36 -89.5t-97 -32.5zM753 326v-27q0 -131 -93 -220.5t-245 -89.5q-160 0 -264 104.5t-104 256.5t103 256.5t261 104.5q96 0 176.5 -46t124.5 -123l-47 -28q-35 66 -103.5 106t-150.5 40
q-136 0 -223.5 -89.5t-87.5 -220.5t88 -220.5t227 -89.5q123 0 199 67t85 169h-297v50h351z" />
    <glyph glyph-name="gbreve" unicode="&#x11f;" horiz-adv-x="648" 
d="M315 565q-61 0 -97 32.5t-36 89.5h48q0 -78 85 -78t85 78h48q0 -57 -36 -89.5t-97 -32.5zM521 500h50v-476q0 -109 -71 -172t-178 -63q-86 0 -147 32t-89 88l44 25q48 -97 192 -97q93 0 146 50.5t53 136.5v92q-31 -59 -87.5 -93t-127.5 -34q-108 0 -183.5 75.5
t-75.5 185.5t75.5 185.5t183.5 75.5q71 0 127.5 -34t87.5 -93v116zM309 37q89 0 150.5 62t61.5 151t-61.5 151t-150.5 62t-150.5 -62t-61.5 -151t61.5 -151t150.5 -62z" />
    <glyph glyph-name="Gdotaccent" unicode="&#x120;" horiz-adv-x="799" 
d="M401 773q-20 0 -33.5 13.5t-13.5 33.5t13.5 33.5t33.5 13.5q19 0 32.5 -13.5t13.5 -33.5t-13.5 -33.5t-32.5 -13.5zM753 326v-27q0 -131 -93 -220.5t-245 -89.5q-160 0 -264 104.5t-104 256.5t103 256.5t261 104.5q96 0 176.5 -46t124.5 -123l-47 -28q-35 66 -103.5 106
t-150.5 40q-136 0 -223.5 -89.5t-87.5 -220.5t88 -220.5t227 -89.5q123 0 199 67t85 169h-297v50h351z" />
    <glyph glyph-name="gdotaccent" unicode="&#x121;" horiz-adv-x="648" 
d="M315 573q-20 0 -33.5 13.5t-13.5 33.5t13.5 33.5t33.5 13.5q19 0 32.5 -13.5t13.5 -33.5t-13.5 -33.5t-32.5 -13.5zM521 500h50v-476q0 -109 -71 -172t-178 -63q-86 0 -147 32t-89 88l44 25q48 -97 192 -97q93 0 146 50.5t53 136.5v92q-31 -59 -87.5 -93t-127.5 -34
q-108 0 -183.5 75.5t-75.5 185.5t75.5 185.5t183.5 75.5q71 0 127.5 -34t87.5 -93v116zM309 37q89 0 150.5 62t61.5 151t-61.5 151t-150.5 62t-150.5 -62t-61.5 -151t61.5 -151t150.5 -62z" />
    <glyph glyph-name="uni0122" unicode="&#x122;" horiz-adv-x="799" 
d="M753 326v-27q0 -131 -93 -220.5t-245 -89.5q-160 0 -264 104.5t-104 256.5t103 256.5t261 104.5q96 0 176.5 -46t124.5 -123l-47 -28q-35 66 -103.5 106t-150.5 40q-136 0 -223.5 -89.5t-87.5 -220.5t88 -220.5t227 -89.5q123 0 199 67t85 169h-297v50h351zM394 -240
l10 170h51l-25 -170h-36z" />
    <glyph glyph-name="uni0123" unicode="&#x123;" horiz-adv-x="648" 
d="M344 760l-10 -170h-51l25 170h36zM521 500h50v-476q0 -109 -71 -172t-178 -63q-86 0 -147 32t-89 88l44 25q48 -97 192 -97q93 0 146 50.5t53 136.5v92q-31 -59 -87.5 -93t-127.5 -34q-108 0 -183.5 75.5t-75.5 185.5t75.5 185.5t183.5 75.5q71 0 127.5 -34t87.5 -93v116
zM309 37q89 0 150.5 62t61.5 151t-61.5 151t-150.5 62t-150.5 -62t-61.5 -151t61.5 -151t150.5 -62z" />
    <glyph glyph-name="Hbar" unicode="&#x126;" horiz-adv-x="740" 
d="M693 562v-44h-66v-518h-54v335h-406v-335h-54v518h-66v44h66v138h54v-138h406v138h54v-138h66zM573 385v133h-406v-133h406z" />
    <glyph glyph-name="hbar" unicode="&#x127;" horiz-adv-x="577" 
d="M319 511q89 0 141.5 -54.5t52.5 -145.5v-311h-50v311q0 70 -39 111t-109 41q-77 0 -125.5 -51t-48.5 -148v-264h-51v582h-73v42h73v76h51v-76h156v-42h-156v-175q55 104 178 104z" />
    <glyph glyph-name="Imacron" unicode="&#x12a;" horiz-adv-x="227" 
d="M-14 787v44h253v-44h-253zM87 700h53v-700h-53v700z" />
    <glyph glyph-name="imacron" unicode="&#x12b;" horiz-adv-x="204" 
d="M9 587v44h186v-44h-186zM77 0v500h50v-500h-50z" />
    <glyph glyph-name="Iogonek" unicode="&#x12e;" horiz-adv-x="227" 
d="M133 -168q22 0 43 9v-42q-21 -10 -54 -10q-38 0 -58.5 19.5t-20.5 52.5q0 57 44 141v698h53v-700q-17 -32 -24.5 -47t-15 -39t-7.5 -45q0 -37 40 -37z" />
    <glyph glyph-name="iogonek" unicode="&#x12f;" horiz-adv-x="204" 
d="M102 621q-16 0 -28 11.5t-12 28.5q0 16 12 27.5t28 11.5t28 -11.5t12 -27.5q0 -17 -12 -28.5t-28 -11.5zM123 -168q22 0 43 9v-42q-21 -10 -54 -10q-37 0 -58 23t-21 57q0 54 44 137v494h50v-500q-44 -75 -44 -123q0 -19 11 -32t29 -13z" />
    <glyph glyph-name="Idotaccent" unicode="&#x130;" horiz-adv-x="227" 
d="M113 773q-20 0 -33.5 13.5t-13.5 33.5t13.5 33.5t33.5 13.5q19 0 32.5 -13.5t13.5 -33.5t-13.5 -33.5t-32.5 -13.5zM87 700h53v-700h-53v700z" />
    <glyph glyph-name="dotlessi" unicode="&#x131;" horiz-adv-x="204" 
d="M77 0v500h50v-500h-50z" />
    <glyph glyph-name="uni0136" unicode="&#x136;" horiz-adv-x="572" 
d="M198 360l364 -360h-71l-351 345v-345h-53v700h53v-326l341 326h71zM276 -240l10 170h51l-25 -170h-36z" />
    <glyph glyph-name="uni0137" unicode="&#x137;" horiz-adv-x="483" 
d="M181 260l279 -260h-68l-265 246v-246h-50v700h50v-427l253 227h70zM228 -240l10 170h51l-25 -170h-36z" />
    <glyph glyph-name="Lacute" unicode="&#x139;" horiz-adv-x="493" 
d="M227 897l-91 -127h-49l80 127h60zM140 50h330v-50h-383v700h53v-650z" />
    <glyph glyph-name="lacute" unicode="&#x13a;" horiz-adv-x="204" 
d="M76 770h49l91 127h-60zM77 0v730h50v-730h-50z" />
    <glyph glyph-name="uni013B" unicode="&#x13b;" horiz-adv-x="493" 
d="M140 50h330v-50h-383v700h53v-650zM251 -240l10 170h51l-25 -170h-36z" />
    <glyph glyph-name="uni013C" unicode="&#x13c;" horiz-adv-x="204" 
d="M77 0v730h50v-730h-50zM104 -240l25 170h-51l-10 -170h36z" />
    <glyph glyph-name="Lcaron" unicode="&#x13d;" horiz-adv-x="493" 
d="M140 50h330v-50h-383v700h53v-650zM323 700l-24 -170h-36l10 170h50z" />
    <glyph glyph-name="lcaron" unicode="&#x13e;" horiz-adv-x="257" 
d="M77 0v730h50v-730h-50zM239 560l24 170h-50l-10 -170h36z" />
    <glyph glyph-name="Lslash" unicode="&#x141;" horiz-adv-x="510" 
d="M157 50h330v-50h-383v250l-61 -36v49l61 36v401h53v-370l183 108v-49l-183 -108v-231z" />
    <glyph glyph-name="lslash" unicode="&#x142;" horiz-adv-x="240" 
d="M220 453v-49l-75 -51v-353h-50v318l-75 -51v49l75 51v363h50v-328z" />
    <glyph glyph-name="Nacute" unicode="&#x143;" horiz-adv-x="687" 
d="M298 770h49l91 127h-60zM547 700h53v-700h-47l-413 602v-602h-53v700h46l414 -602v602z" />
    <glyph glyph-name="nacute" unicode="&#x144;" 
d="M390 697l-91 -127h-49l80 127h60zM306 511q89 0 141.5 -54.5t52.5 -145.5v-311h-51v311q0 70 -38.5 111t-108.5 41q-77 0 -126 -51t-49 -148v-264h-50v500h50v-95q54 106 179 106z" />
    <glyph glyph-name="uni0145" unicode="&#x145;" horiz-adv-x="687" 
d="M547 700h53v-700h-47l-413 602v-602h-53v700h46l414 -602v602zM342 -240l25 170h-51l-10 -170h36z" />
    <glyph glyph-name="uni0146" unicode="&#x146;" 
d="M306 511q89 0 141.5 -54.5t52.5 -145.5v-311h-51v311q0 70 -38.5 111t-108.5 41q-77 0 -126 -51t-49 -148v-264h-50v500h50v-95q54 106 179 106zM261 -240l10 170h51l-25 -170h-36z" />
    <glyph glyph-name="Ncaron" unicode="&#x147;" horiz-adv-x="687" 
d="M310 770l-108 127h58l80 -95l80 95h58l-108 -127h-60zM547 700h53v-700h-47l-413 602v-602h-53v700h46l414 -602v602z" />
    <glyph glyph-name="ncaron" unicode="&#x148;" 
d="M262 570l-108 127h58l80 -95l80 95h58l-108 -127h-60zM306 511q89 0 141.5 -54.5t52.5 -145.5v-311h-51v311q0 70 -38.5 111t-108.5 41q-77 0 -126 -51t-49 -148v-264h-50v500h50v-95q54 106 179 106z" />
    <glyph glyph-name="Eng" unicode="&#x14a;" horiz-adv-x="687" 
d="M547 700h53v-700q0 -200 -205 -200v51q76 0 114 32.5t38 116.5v9l-407 593v-602h-53v700h46l414 -602v602z" />
    <glyph glyph-name="eng" unicode="&#x14b;" 
d="M306 511q89 0 141.5 -54.5t52.5 -145.5v-368q0 -80 -43 -120.5t-123 -33.5v48q59 -6 87 20t28 86v368q0 70 -38.5 111t-108.5 41q-77 0 -126 -51t-49 -148v-264h-50v500h50v-95q54 106 179 106z" />
    <glyph glyph-name="Omacron" unicode="&#x14c;" horiz-adv-x="816" 
d="M281 787v44h253v-44h-253zM408 -11q-151 0 -256 105.5t-105 255.5t105 255.5t256 105.5t256 -105.5t105 -255.5t-105 -255.5t-256 -105.5zM408 40q129 0 218.5 90.5t89.5 219.5t-89.5 219.5t-218.5 90.5t-218.5 -90.5t-89.5 -219.5t89.5 -219.5t218.5 -90.5z" />
    <glyph glyph-name="omacron" unicode="&#x14d;" horiz-adv-x="611" 
d="M176 587v44h253v-44h-253zM306 -11q-110 0 -186.5 75.5t-76.5 185.5t76.5 185.5t186.5 75.5q109 0 185.5 -75.5t76.5 -185.5t-76.5 -185.5t-185.5 -75.5zM306 37q89 0 150 62t61 151t-61 151t-150 62t-150.5 -62t-61.5 -151t61.5 -151t150.5 -62z" />
    <glyph glyph-name="Ohungarumlaut" unicode="&#x150;" horiz-adv-x="816" 
d="M285 770h51l75 130h-56zM427 770h51l85 130h-56zM408 -11q-151 0 -256 105.5t-105 255.5t105 255.5t256 105.5t256 -105.5t105 -255.5t-105 -255.5t-256 -105.5zM408 40q129 0 218.5 90.5t89.5 219.5t-89.5 219.5t-218.5 90.5t-218.5 -90.5t-89.5 -219.5t89.5 -219.5
t218.5 -90.5z" />
    <glyph glyph-name="ohungarumlaut" unicode="&#x151;" horiz-adv-x="611" 
d="M180 570h51l75 130h-56zM322 570h51l85 130h-56zM306 -11q-110 0 -186.5 75.5t-76.5 185.5t76.5 185.5t186.5 75.5q109 0 185.5 -75.5t76.5 -185.5t-76.5 -185.5t-185.5 -75.5zM306 37q89 0 150 62t61 151t-61 151t-150 62t-150.5 -62t-61.5 -151t61.5 -151t150.5 -62z
" />
    <glyph glyph-name="OE" unicode="&#x152;" horiz-adv-x="912" 
d="M545 50h324v-50h-377q-44 -11 -94 -11q-153 0 -252 104.5t-99 256.5t99 256.5t252 104.5q50 0 94 -11h372v-50h-319v-272h300v-50h-300v-278zM492 54v592q-44 14 -94 14q-131 0 -214.5 -89.5t-83.5 -220.5t83.5 -220.5t214.5 -89.5q50 0 94 14z" />
    <glyph glyph-name="oe" unicode="&#x153;" horiz-adv-x="1061" 
d="M775 511q109 0 177.5 -78t68.5 -185q0 -16 -1 -24h-453q9 -84 67.5 -135.5t144.5 -51.5q60 0 105 25t68 66l44 -26q-31 -52 -87.5 -82.5t-128.5 -30.5q-86 0 -149 43t-90 116q-28 -72 -91 -115.5t-144 -43.5q-112 0 -187.5 75t-75.5 186t75.5 186t187.5 75
q81 0 144 -43.5t91 -116.5q27 73 89 116.5t145 43.5zM306 37q89 0 149.5 61.5t60.5 151.5t-60.5 151.5t-149.5 61.5q-91 0 -151.5 -61.5t-60.5 -151.5t60.5 -151.5t151.5 -61.5zM774 463q-84 0 -141.5 -53t-65.5 -137h402q-8 89 -63.5 139.5t-131.5 50.5z" />
    <glyph glyph-name="Racute" unicode="&#x154;" horiz-adv-x="613" 
d="M411 897l-91 -127h-49l80 127h60zM529 0l-168 287h-221v-287h-53v700h276q85 0 146 -61t61 -146q0 -71 -43.5 -126t-110.5 -73l174 -294h-61zM140 650v-313h223q64 0 109 45.5t45 110.5t-45 111t-109 46h-223z" />
    <glyph glyph-name="racute" unicode="&#x155;" horiz-adv-x="318" 
d="M283 697l-91 -127h-49l80 127h60zM127 402q45 105 167 105v-48q-71 0 -119 -45.5t-48 -135.5v-278h-50v500h50v-98z" />
    <glyph glyph-name="uni0156" unicode="&#x156;" horiz-adv-x="613" 
d="M590 0h-61l-168 287h-221v-287h-53v700h276q85 0 146 -61t61 -146q0 -71 -43.5 -126t-110.5 -73zM140 650v-313h223q64 0 109 45.5t45 110.5t-45 111t-109 46h-223zM299 -240l10 170h51l-25 -170h-36z" />
    <glyph glyph-name="uni0157" unicode="&#x157;" horiz-adv-x="318" 
d="M127 402q45 105 167 105v-48q-71 0 -119 -45.5t-48 -135.5v-278h-50v500h50v-98zM67 -240l10 170h51l-25 -170h-36z" />
    <glyph glyph-name="Rcaron" unicode="&#x158;" horiz-adv-x="613" 
d="M283 770l-108 127h58l80 -95l80 95h58l-108 -127h-60zM529 0l-168 287h-221v-287h-53v700h276q85 0 146 -61t61 -146q0 -71 -43.5 -126t-110.5 -73l174 -294h-61zM140 650v-313h223q64 0 109 45.5t45 110.5t-45 111t-109 46h-223z" />
    <glyph glyph-name="rcaron" unicode="&#x159;" horiz-adv-x="318" 
d="M155 570l-108 127h58l80 -95l80 95h58l-108 -127h-60zM127 402q45 105 167 105v-48q-71 0 -119 -45.5t-48 -135.5v-278h-50v500h50v-98z" />
    <glyph glyph-name="Sacute" unicode="&#x15a;" horiz-adv-x="574" 
d="M238 770h49l91 127h-60zM301 -11q-97 0 -164.5 44.5t-91.5 120.5l46 27q19 -65 72.5 -103t137.5 -38q85 0 130.5 39t45.5 101q0 58 -44 89t-137 61q-34 11 -49.5 16.5t-44.5 17t-43 20.5t-33.5 24t-28.5 30.5t-16 37t-7 47.5q0 85 60.5 136.5t151.5 51.5q82 0 140 -41
t85 -106l-45 -25q-50 121 -180 121q-72 0 -115 -38t-43 -97q0 -57 40 -85t131 -58q58 -19 90.5 -32.5t70 -37t54.5 -56t17 -75.5q0 -87 -63 -139.5t-167 -52.5z" />
    <glyph glyph-name="sacute" unicode="&#x15b;" horiz-adv-x="458" 
d="M327 697l-91 -127h-49l80 127h60zM111 369q0 -37 31 -58t75.5 -31.5t89.5 -23.5t76 -43.5t31 -81.5q0 -62 -49.5 -102t-129.5 -40q-72 0 -121.5 30.5t-68.5 80.5l43 25q14 -41 52.5 -64.5t94.5 -23.5t92.5 24.5t36.5 69.5q0 37 -31 59t-76 32.5t-89.5 23.5t-75.5 43
t-31 80q0 60 47.5 101t122.5 41q60 0 104.5 -27t65.5 -73l-42 -24q-15 37 -50 56.5t-78 19.5q-51 0 -85.5 -25.5t-34.5 -68.5z" />
    <glyph glyph-name="Scedilla" unicode="&#x15e;" horiz-adv-x="574" 
d="M531 181q0 -85 -60.5 -137.5t-160.5 -54.5v-45q40 -5 65.5 -24.5t25.5 -50.5q0 -95 -195 -80v41q74 -7 112.5 3.5t38.5 35.5q0 43 -92 43v79q-83 8 -140.5 51.5t-79.5 111.5l46 27q19 -65 72.5 -103t137.5 -38q85 0 130.5 39t45.5 101q0 58 -44 89t-137 61
q-34 11 -49.5 16.5t-44.5 17t-43 20.5t-33.5 24t-28.5 30.5t-16 37t-7 47.5q0 85 60.5 136.5t151.5 51.5q82 0 140 -41t85 -106l-45 -25q-50 121 -180 121q-72 0 -115 -38t-43 -97q0 -57 40 -85t131 -58q58 -19 90.5 -32.5t70 -37t54.5 -56t17 -75.5z" />
    <glyph glyph-name="scedilla" unicode="&#x15f;" horiz-adv-x="458" 
d="M414 131q0 -58 -43.5 -97t-114.5 -44v-46q40 -5 65.5 -24.5t25.5 -50.5q0 -95 -195 -80v41q74 -7 112.5 3.5t38.5 35.5q0 43 -92 43v78q-63 5 -106 34.5t-60 75.5l43 25q14 -41 52.5 -64.5t94.5 -23.5t92.5 24.5t36.5 69.5q0 37 -31 59t-76 32.5t-89.5 23.5t-75.5 43
t-31 80q0 60 47.5 101t122.5 41q60 0 104.5 -27t65.5 -73l-42 -24q-15 37 -50 56.5t-78 19.5q-51 0 -85.5 -25.5t-34.5 -68.5q0 -37 31 -58t75.5 -31.5t89.5 -23.5t76 -43.5t31 -81.5z" />
    <glyph glyph-name="Scaron" unicode="&#x160;" horiz-adv-x="574" 
d="M250 770l-108 127h58l80 -95l80 95h58l-108 -127h-60zM299 382q58 -19 90.5 -32.5t70 -37t54.5 -56t17 -75.5q0 -87 -63 -139.5t-167 -52.5q-97 0 -164.5 44.5t-91.5 120.5l46 27q19 -65 72.5 -103t137.5 -38q85 0 130.5 39t45.5 101q0 58 -44 89t-137 61
q-34 11 -49.5 16.5t-44.5 17t-43 20.5t-33.5 24t-28.5 30.5t-16 37t-7 47.5q0 85 60.5 136.5t151.5 51.5q82 0 140 -41t85 -106l-45 -25q-50 121 -180 121q-72 0 -115 -38t-43 -97q0 -57 40 -85t131 -58z" />
    <glyph glyph-name="scaron" unicode="&#x161;" horiz-adv-x="458" 
d="M199 570l-108 127h58l80 -95l80 95h58l-108 -127h-60zM111 369q0 -37 31 -58t75.5 -31.5t89.5 -23.5t76 -43.5t31 -81.5q0 -62 -49.5 -102t-129.5 -40q-72 0 -121.5 30.5t-68.5 80.5l43 25q14 -41 52.5 -64.5t94.5 -23.5t92.5 24.5t36.5 69.5q0 37 -31 59t-76 32.5
t-89.5 23.5t-75.5 43t-31 80q0 60 47.5 101t122.5 41q60 0 104.5 -27t65.5 -73l-42 -24q-15 37 -50 56.5t-78 19.5q-51 0 -85.5 -25.5t-34.5 -68.5z" />
    <glyph glyph-name="uni0162" unicode="&#x162;" horiz-adv-x="540" 
d="M517 700v-50h-220v-650h-54v650h-220v50h494zM236 -240l10 170h51l-25 -170h-36z" />
    <glyph glyph-name="uni0163" unicode="&#x163;" horiz-adv-x="376" 
d="M333 451h-149v-325q0 -43 16 -62t49 -21.5t84 2.5v-45q-101 -15 -150.5 14t-49.5 112v325h-110v49h110v125l51 15v-140h149v-49zM202 -240l10 170h51l-25 -170h-36z" />
    <glyph glyph-name="Tcaron" unicode="&#x164;" horiz-adv-x="540" 
d="M240 770l-108 127h58l80 -95l80 95h58l-108 -127h-60zM517 700v-50h-220v-650h-54v650h-220v50h494z" />
    <glyph glyph-name="tcaron" unicode="&#x165;" horiz-adv-x="376" 
d="M303 714l-24 -157h-36l10 157h50zM333 451h-149v-325q0 -43 16 -62t49 -21.5t84 2.5v-45q-101 -15 -150.5 14t-49.5 112v325h-110v49h110v125l51 15v-140h149v-49z" />
    <glyph glyph-name="Tbar" unicode="&#x166;" horiz-adv-x="540" 
d="M517 650h-220v-276h153v-48h-153v-326h-54v326h-153v48h153v276h-220v50h494v-50z" />
    <glyph glyph-name="tbar" unicode="&#x167;" horiz-adv-x="376" 
d="M333 451h-149v-168h100v-42h-100v-115q0 -43 16 -62t49 -21.5t84 2.5v-45q-101 -15 -150.5 14t-49.5 112v115h-69v42h69v168h-110v49h110v125l51 15v-140h149v-49z" />
    <glyph glyph-name="Umacron" unicode="&#x16a;" horiz-adv-x="667" 
d="M205 787v44h253v-44h-253zM333 -11q-116 0 -186 67t-70 178v466h53v-466q0 -88 53 -141t150 -53t150.5 53t53.5 141v466h53v-466q0 -111 -70.5 -178t-186.5 -67z" />
    <glyph glyph-name="umacron" unicode="&#x16b;" 
d="M400 631v-44h-253v44h253zM437 500h50v-500h-50v95q-54 -106 -179 -106q-89 0 -141.5 54.5t-52.5 145.5v311h51v-311q0 -70 38.5 -111t108.5 -41q77 0 126 51t49 148v264z" />
    <glyph glyph-name="Uring" unicode="&#x16e;" horiz-adv-x="667" 
d="M331 720q-45 0 -73.5 27.5t-28.5 69.5t28.5 69.5t73.5 27.5q46 0 74.5 -27.5t28.5 -69.5t-28.5 -69.5t-74.5 -27.5zM331 760q28 0 44.5 16t16.5 41t-16.5 41t-44.5 16q-27 0 -43 -16t-16 -41t16 -41t43 -16zM333 -11q-116 0 -186 67t-70 178v466h53v-466q0 -88 53 -141
t150 -53t150.5 53t53.5 141v466h53v-466q0 -111 -70.5 -178t-186.5 -67z" />
    <glyph glyph-name="uring" unicode="&#x16f;" 
d="M274 553q-45 0 -73.5 27.5t-28.5 69.5t28.5 69.5t73.5 27.5q46 0 74.5 -27.5t28.5 -69.5t-28.5 -69.5t-74.5 -27.5zM274 707q-27 0 -43 -16t-16 -41t16 -41t43 -16q28 0 44.5 16t16.5 41t-16.5 41t-44.5 16zM437 500h50v-500h-50v95q-54 -106 -179 -106
q-89 0 -141.5 54.5t-52.5 145.5v311h51v-311q0 -70 38.5 -111t108.5 -41q77 0 126 51t49 148v264z" />
    <glyph glyph-name="Uhungarumlaut" unicode="&#x170;" horiz-adv-x="667" 
d="M209 770h51l75 130h-56zM351 770h51l85 130h-56zM333 -11q-116 0 -186 67t-70 178v466h53v-466q0 -88 53 -141t150 -53t150.5 53t53.5 141v466h53v-466q0 -111 -70.5 -178t-186.5 -67z" />
    <glyph glyph-name="uhungarumlaut" unicode="&#x171;" 
d="M277 700l-75 -130h-51l70 130h56zM429 700l-85 -130h-51l80 130h56zM437 500h50v-500h-50v95q-54 -106 -179 -106q-89 0 -141.5 54.5t-52.5 145.5v311h51v-311q0 -70 38.5 -111t108.5 -41q77 0 126 51t49 148v264z" />
    <glyph glyph-name="Uogonek" unicode="&#x172;" horiz-adv-x="667" 
d="M537 700h53v-466q0 -125 -88 -193q-73 -65 -100.5 -101t-27.5 -71q0 -37 40 -37q22 0 43 9v-42q-21 -10 -54 -10q-38 0 -58.5 19.5t-20.5 52.5q0 63 75 134q-31 -6 -66 -6q-116 0 -186 67t-70 178v466h53v-466q0 -88 53 -141t150 -53t150.5 53t53.5 141v466z" />
    <glyph glyph-name="uogonek" unicode="&#x173;" 
d="M487 0q-83 -75 -83 -131q0 -37 40 -37q22 0 43 9v-42q-23 -10 -54 -10q-37 0 -57.5 19.5t-20.5 52.5q0 61 82 149v85q-54 -106 -179 -106q-89 0 -141.5 54.5t-52.5 145.5v311h51v-311q0 -70 38.5 -111t108.5 -41q77 0 126 51t49 148v264h50v-500z" />
    <glyph glyph-name="Wcircumflex" unicode="&#x174;" horiz-adv-x="993" 
d="M474 865l-81 -95h-57l108 127h59l108 -127h-57zM904 700h56l-203 -700h-64l-196 631l-197 -631h-64l-203 700h56l181 -629l195 629h63l196 -629z" />
    <glyph glyph-name="wcircumflex" unicode="&#x175;" horiz-adv-x="770" 
d="M385 665l-81 -95h-57l108 127h59l108 -127h-57zM684 500h53l-158 -500h-55l-139 426l-139 -426h-55l-158 500h53l133 -435l140 435h52l140 -435z" />
    <glyph glyph-name="Ycircumflex" unicode="&#x176;" horiz-adv-x="583" 
d="M289 865l-81 -95h-57l108 127h59l108 -127h-57zM573 700l-255 -412v-288h-53v288l-255 412h60l222 -361l221 361h60z" />
    <glyph glyph-name="ycircumflex" unicode="&#x177;" horiz-adv-x="510" 
d="M258 665l-81 -95h-57l108 127h59l108 -127h-57zM443 500h54l-216 -546q-29 -74 -82 -116.5t-116 -37.5v47q48 -4 86.5 27.5t62.5 89.5l11 27l-230 509h54l202 -445z" />
    <glyph glyph-name="Ydieresis" unicode="&#x178;" horiz-adv-x="583" 
d="M199 777q-16 0 -26.5 10.5t-10.5 25.5q0 16 10.5 26.5t26.5 10.5q15 0 25.5 -10.5t10.5 -26.5q0 -15 -10.5 -25.5t-25.5 -10.5zM379 777q-16 0 -26.5 10.5t-10.5 25.5q0 16 10.5 26.5t26.5 10.5q15 0 25.5 -10.5t10.5 -26.5q0 -15 -10.5 -25.5t-25.5 -10.5zM573 700
l-255 -412v-288h-53v288l-255 412h60l222 -361l221 361h60z" />
    <glyph glyph-name="Zacute" unicode="&#x179;" horiz-adv-x="523" 
d="M365 897l-91 -127h-49l80 127h60zM102 50h388v-50h-447v50l378 600h-368v50h427v-50z" />
    <glyph glyph-name="zacute" unicode="&#x17a;" horiz-adv-x="477" 
d="M343 697l-91 -127h-49l80 127h60zM124 49h309v-49h-380v33l300 418h-290v49h360v-33z" />
    <glyph glyph-name="Zdotaccent" unicode="&#x17b;" horiz-adv-x="523" 
d="M267 773q-20 0 -33.5 13.5t-13.5 33.5t13.5 33.5t33.5 13.5q19 0 32.5 -13.5t13.5 -33.5t-13.5 -33.5t-32.5 -13.5zM102 50h388v-50h-447v50l378 600h-368v50h427v-50z" />
    <glyph glyph-name="zdotaccent" unicode="&#x17c;" horiz-adv-x="477" 
d="M245 573q-20 0 -33.5 13.5t-13.5 33.5t13.5 33.5t33.5 13.5q19 0 32.5 -13.5t13.5 -33.5t-13.5 -33.5t-32.5 -13.5zM124 49h309v-49h-380v33l300 418h-290v49h360v-33z" />
    <glyph glyph-name="Zcaron" unicode="&#x17d;" horiz-adv-x="523" 
d="M237 770l-108 127h58l80 -95l80 95h58l-108 -127h-60zM102 50h388v-50h-447v50l378 600h-368v50h427v-50z" />
    <glyph glyph-name="zcaron" unicode="&#x17e;" horiz-adv-x="477" 
d="M215 570l-108 127h58l80 -95l80 95h58l-108 -127h-60zM124 49h309v-49h-380v33l300 418h-290v49h360v-33z" />
    <glyph glyph-name="florin" unicode="&#x192;" horiz-adv-x="436" 
d="M249 577q13 82 65 115t122 11v-50q-52 22 -89.5 0t-47.5 -77l-34 -201h120v-49h-128l-69 -403q-14 -82 -66 -115t-122 -11v50q53 -22 90.5 0t46.5 77l69 402h-115v49h123z" />
    <glyph glyph-name="uni0218" unicode="&#x218;" horiz-adv-x="574" 
d="M301 -11q-97 0 -164.5 44.5t-91.5 120.5l46 27q19 -65 72.5 -103t137.5 -38q85 0 130.5 39t45.5 101q0 58 -44 89t-137 61q-34 11 -49.5 16.5t-44.5 17t-43 20.5t-33.5 24t-28.5 30.5t-16 37t-7 47.5q0 85 60.5 136.5t151.5 51.5q82 0 140 -41t85 -106l-45 -25
q-50 121 -180 121q-72 0 -115 -38t-43 -97q0 -57 40 -85t131 -58q58 -19 90.5 -32.5t70 -37t54.5 -56t17 -75.5q0 -87 -63 -139.5t-167 -52.5zM300 -240l25 170h-51l-10 -170h36z" />
    <glyph glyph-name="uni0219" unicode="&#x219;" horiz-adv-x="458" 
d="M111 369q0 -37 31 -58t75.5 -31.5t89.5 -23.5t76 -43.5t31 -81.5q0 -62 -49.5 -102t-129.5 -40q-72 0 -121.5 30.5t-68.5 80.5l43 25q14 -41 52.5 -64.5t94.5 -23.5t92.5 24.5t36.5 69.5q0 37 -31 59t-76 32.5t-89.5 23.5t-75.5 43t-31 80q0 60 47.5 101t122.5 41
q60 0 104.5 -27t65.5 -73l-42 -24q-15 37 -50 56.5t-78 19.5q-51 0 -85.5 -25.5t-34.5 -68.5zM210 -240l10 170h51l-25 -170h-36z" />
    <glyph glyph-name="uni021A" unicode="&#x21a;" horiz-adv-x="540" 
d="M517 700v-50h-220v-650h-54v650h-220v50h494zM236 -240l10 170h51l-25 -170h-36z" />
    <glyph glyph-name="uni021B" unicode="&#x21b;" horiz-adv-x="376" 
d="M333 451h-149v-325q0 -43 16 -62t49 -21.5t84 2.5v-45q-101 -15 -150.5 14t-49.5 112v325h-110v49h110v125l51 15v-140h149v-49zM202 -240l10 170h51l-25 -170h-36z" />
    <glyph glyph-name="circumflex" unicode="&#x2c6;" horiz-adv-x="315" 
d="M295 570h-57l-80 95l-81 -95h-57l108 127h59z" />
    <glyph glyph-name="caron" unicode="&#x2c7;" horiz-adv-x="315" 
d="M238 697h58l-108 -127h-60l-108 127h58l80 -95z" />
    <glyph glyph-name="breve" unicode="&#x2d8;" horiz-adv-x="307" 
d="M153 565q-61 0 -97 32.5t-36 89.5h48q0 -78 85 -78t85 78h48q0 -57 -36 -89.5t-97 -32.5z" />
    <glyph glyph-name="dotaccent" unicode="&#x2d9;" horiz-adv-x="133" 
d="M67 573q-20 0 -33.5 13.5t-13.5 33.5t13.5 33.5t33.5 13.5q19 0 32.5 -13.5t13.5 -33.5t-13.5 -33.5t-32.5 -13.5z" />
    <glyph glyph-name="ring" unicode="&#x2da;" horiz-adv-x="245" 
d="M122 553q-45 0 -73.5 27.5t-28.5 69.5t28.5 69.5t73.5 27.5q46 0 74.5 -27.5t28.5 -69.5t-28.5 -69.5t-74.5 -27.5zM122 593q28 0 44.5 16t16.5 41t-16.5 41t-44.5 16q-27 0 -43 -16t-16 -41t16 -41t43 -16z" />
    <glyph glyph-name="ogonek" unicode="&#x2db;" horiz-adv-x="173" 
d="M99 -211q-38 0 -58.5 19.5t-20.5 52.5q0 67 79 139h53q-83 -75 -83 -131q0 -37 41 -37q22 0 43 9v-42q-23 -10 -54 -10z" />
    <glyph glyph-name="tilde" unicode="&#x2dc;" horiz-adv-x="312" 
d="M20 583q0 55 20 82.5t51.5 24.5t66.5 -33q90 -77 90 28h44q0 -81 -43 -101t-95 27q-42 38 -66 33t-24 -61h-44z" />
    <glyph glyph-name="hungarumlaut" unicode="&#x2dd;" horiz-adv-x="318" 
d="M20 570h51l75 130h-56zM162 570h51l85 130h-56z" />
    <glyph glyph-name="gravecomb" unicode="&#x300;" horiz-adv-x="0" 
d="M-20 570l-80 127h-60l92 -127h48z" />
    <glyph glyph-name="acutecomb" unicode="&#x301;" horiz-adv-x="0" 
d="M-160 570h49l91 127h-60z" />
    <glyph glyph-name="uni0302" unicode="&#x302;" horiz-adv-x="0" 
d="M-20 570h-57l-80 95l-81 -95h-57l108 127h59z" />
    <glyph glyph-name="tildecomb" unicode="&#x303;" horiz-adv-x="0" 
d="M-292 583q0 55 20 82.5t51.5 24.5t66.5 -33q90 -77 90 28h44q0 -81 -43 -101t-95 27q-42 38 -66 33t-24 -61h-44z" />
    <glyph glyph-name="uni0304" unicode="&#x304;" horiz-adv-x="0" 
d="M-273 587v44h253v-44h-253z" />
    <glyph glyph-name="uni0306" unicode="&#x306;" horiz-adv-x="0" 
d="M-160 565q-61 0 -97 32.5t-36 89.5h48q0 -78 85 -78t85 78h48q0 -57 -36 -89.5t-97 -32.5z" />
    <glyph glyph-name="uni0307" unicode="&#x307;" horiz-adv-x="0" 
d="M-66 573q-20 0 -33.5 13.5t-13.5 33.5t13.5 33.5t33.5 13.5q19 0 32.5 -13.5t13.5 -33.5t-13.5 -33.5t-32.5 -13.5z" />
    <glyph glyph-name="uni0308" unicode="&#x308;" horiz-adv-x="0" 
d="M-236 577q-16 0 -26.5 10.5t-10.5 25.5q0 16 10.5 26.5t26.5 10.5q15 0 25.5 -10.5t10.5 -26.5q0 -15 -10.5 -25.5t-25.5 -10.5zM-56 577q-16 0 -26.5 10.5t-10.5 25.5q0 16 10.5 26.5t26.5 10.5q15 0 25.5 -10.5t10.5 -26.5q0 -15 -10.5 -25.5t-25.5 -10.5z" />
    <glyph glyph-name="uni030A" unicode="&#x30a;" horiz-adv-x="0" 
d="M-123 553q-45 0 -73.5 27.5t-28.5 69.5t28.5 69.5t73.5 27.5q46 0 74.5 -27.5t28.5 -69.5t-28.5 -69.5t-74.5 -27.5zM-123 593q28 0 44.5 16t16.5 41t-16.5 41t-44.5 16q-27 0 -43 -16t-16 -41t16 -41t43 -16z" />
    <glyph glyph-name="uni030B" unicode="&#x30b;" horiz-adv-x="0" 
d="M-295 570h51l75 130h-56zM-153 570h51l85 130h-56z" />
    <glyph glyph-name="uni030C" unicode="&#x30c;" horiz-adv-x="0" 
d="M-77 697h58l-108 -127h-60l-108 127h58l80 -95z" />
    <glyph glyph-name="uni0312" unicode="&#x312;" horiz-adv-x="0" 
d="M-56 960l-25 -170h51l10 170h-36z" />
    <glyph glyph-name="uni0326" unicode="&#x326;" horiz-adv-x="0" 
d="M-45 -240l25 170h-51l-10 -170h36z" />
    <glyph glyph-name="uni0327" unicode="&#x327;" horiz-adv-x="0" 
d="M-111 -56q40 -5 65.5 -24.5t25.5 -50.5q0 -95 -195 -80v41q74 -7 112.5 3.5t38.5 35.5q0 43 -92 43v88h45v-56z" />
    <glyph glyph-name="uni0328" unicode="&#x328;" horiz-adv-x="0" 
d="M-74 -211q-38 0 -58.5 19.5t-20.5 52.5q0 67 79 139h53q-83 -75 -83 -131q0 -37 41 -37q22 0 43 9v-42q-23 -10 -54 -10z" />
    <glyph glyph-name="uni0394" unicode="&#x394;" horiz-adv-x="626" 
d="M341 700l272 -700h-600l272 700h56zM89 50h448l-224 585z" />
    <glyph glyph-name="uni03A9" unicode="&#x3a9;" horiz-adv-x="816" 
d="M769 350q0 -97 -47 -176.5t-126 -123.5h162v-50h-271v50q101 26 165 109t64 191q0 129 -89.5 219.5t-218.5 90.5t-218.5 -90.5t-89.5 -219.5q0 -108 64 -191t165 -109v-50h-271v50h162q-79 44 -126 123.5t-47 176.5q0 150 105 255.5t256 105.5t256 -105.5t105 -255.5z
" />
    <glyph glyph-name="pi" unicode="&#x3c0;" horiz-adv-x="650" 
d="M617 500v-49h-83v-451h-51v451h-312v-451h-51v451h-87v49h584z" />
    <glyph glyph-name="uni0401" unicode="&#x401;" horiz-adv-x="533" 
d="M196 777q-16 0 -26.5 10.5t-10.5 25.5q0 16 10.5 26.5t26.5 10.5q15 0 25.5 -10.5t10.5 -26.5q0 -15 -10.5 -25.5t-25.5 -10.5zM376 777q-16 0 -26.5 10.5t-10.5 25.5q0 16 10.5 26.5t26.5 10.5q15 0 25.5 -10.5t10.5 -26.5q0 -15 -10.5 -25.5t-25.5 -10.5zM140 50h350
v-50h-403v700h398v-50h-345v-272h320v-50h-320v-278z" />
    <glyph glyph-name="uni0402" unicode="&#x402;" horiz-adv-x="699" 
d="M448 471q81 0 132.5 -47.5t51.5 -136.5v-139q0 -81 -43 -121.5t-123 -33.5v49q59 -7 86 19t27 87v139q0 67 -35.5 101.5t-95.5 34.5q-83 0 -171 -39v-384h-54v650h-200v50h487v-50h-233v-218q81 39 171 39z" />
    <glyph glyph-name="uni0403" unicode="&#x403;" horiz-adv-x="493" 
d="M374 896l-91 -127h-49l80 127h60zM470 700v-50h-330v-650h-53v700h383z" />
    <glyph glyph-name="uni0404" unicode="&#x404;" horiz-adv-x="748" 
d="M662 187l48 -27q-43 -78 -124 -124.5t-178 -46.5q-158 0 -259.5 104.5t-101.5 256.5t101.5 256.5t259.5 104.5q95 0 175.5 -45.5t124.5 -122.5l-47 -27q-36 65 -104 104.5t-149 39.5q-129 0 -214 -81.5t-93 -203.5h395v-50h-395q8 -122 93 -203.5t214 -81.5
q82 0 150.5 40t103.5 107z" />
    <glyph glyph-name="uni0405" unicode="&#x405;" horiz-adv-x="574" 
d="M301 -11q-97 0 -164.5 44.5t-91.5 120.5l46 27q19 -65 72.5 -103t137.5 -38q85 0 130.5 39t45.5 101q0 58 -44 89t-137 61q-34 11 -49.5 16.5t-44.5 17t-43 20.5t-33.5 24t-28.5 30.5t-16 37t-7 47.5q0 85 60.5 136.5t151.5 51.5q82 0 140 -41t85 -106l-45 -25
q-50 121 -180 121q-72 0 -115 -38t-43 -97q0 -57 40 -85t131 -58q58 -19 90.5 -32.5t70 -37t54.5 -56t17 -75.5q0 -87 -63 -139.5t-167 -52.5z" />
    <glyph glyph-name="uni0406" unicode="&#x406;" horiz-adv-x="227" 
d="M87 700h53v-700h-53v700z" />
    <glyph glyph-name="uni0407" unicode="&#x407;" horiz-adv-x="227" 
d="M23 777q-16 0 -26.5 10.5t-10.5 25.5q0 16 10.5 26.5t26.5 10.5q15 0 25.5 -10.5t10.5 -26.5q0 -15 -10.5 -25.5t-25.5 -10.5zM203 777q-16 0 -26.5 10.5t-10.5 25.5q0 16 10.5 26.5t26.5 10.5q15 0 25.5 -10.5t10.5 -26.5q0 -15 -10.5 -25.5t-25.5 -10.5zM87 700h53
v-700h-53v700z" />
    <glyph glyph-name="uni0408" unicode="&#x408;" horiz-adv-x="553" 
d="M252 -11q-73 0 -128.5 30t-80.5 87l45 27q37 -93 164 -93q78 0 124.5 39.5t46.5 112.5v508h54v-508q0 -97 -63.5 -150t-161.5 -53z" />
    <glyph glyph-name="uni0409" unicode="&#x409;" horiz-adv-x="995" 
d="M745 393q86 0 146.5 -56t60.5 -140q0 -85 -60 -141t-147 -56h-220v650h-303v-354q0 -168 -51.5 -237t-152.5 -60v47q74 -8 112.5 48.5t38.5 202.5v403h409v-307h167zM745 50q64 0 108.5 41.5t44.5 105.5q0 63 -44.5 104.5t-108.5 41.5h-167v-293h167z" />
    <glyph glyph-name="uni040A" unicode="&#x40a;" horiz-adv-x="983" 
d="M733 393q86 0 146.5 -56t60.5 -140q0 -85 -60 -141t-147 -56h-220v343h-373v-343h-53v700h53v-307h373v307h54v-307h166zM733 50q65 0 109.5 41.5t44.5 105.5t-44.5 105t-109.5 41h-166v-293h166z" />
    <glyph glyph-name="uni040B" unicode="&#x40b;" horiz-adv-x="705" 
d="M448 471q81 0 132.5 -47.5t51.5 -136.5v-287h-53v287q0 67 -35.5 101.5t-95.5 34.5q-83 0 -171 -39v-384h-54v650h-200v50h487v-50h-233v-218q81 39 171 39z" />
    <glyph glyph-name="uni040C" unicode="&#x40c;" horiz-adv-x="572" 
d="M384 896l-91 -127h-49l80 127h60zM562 0h-71l-351 345v-345h-53v700h53v-326l341 326h71l-354 -340z" />
    <glyph glyph-name="uni040E" unicode="&#x40e;" horiz-adv-x="566" 
d="M415 830v-44h-253v44h253zM498 700h55l-233 -547q-70 -164 -213 -153v49q108 -12 160 110l12 28l-246 513h55l216 -453z" />
    <glyph glyph-name="uni040F" unicode="&#x40f;" horiz-adv-x="673" 
d="M533 700h54v-700h-224v-134h-53v134h-223v700h53v-650h393v650z" />
    <glyph glyph-name="uni0410" unicode="&#x410;" horiz-adv-x="629" 
d="M558 0l-68 178h-351l-68 -178h-56l272 700h56l271 -700h-56zM159 228h312l-156 407z" />
    <glyph glyph-name="uni0411" unicode="&#x411;" horiz-adv-x="585" 
d="M340 413q85 0 146 -60.5t61 -145.5t-60.5 -146t-146.5 -61h-253v700h403v-50h-350v-237h200zM340 50q63 0 108 46t45 111q0 64 -45 110t-108 46h-200v-313h200z" />
    <glyph glyph-name="uni0412" unicode="&#x412;" horiz-adv-x="623" 
d="M460 363q54 -21 87 -67t33 -105q0 -79 -56 -135t-135 -56h-302v700h279q76 0 130 -54t54 -130q0 -50 -24.5 -90.5t-65.5 -62.5zM366 650h-226v-268h226q54 0 92.5 39.5t38.5 94.5t-38.5 94.5t-92.5 39.5zM389 50q57 0 97.5 41.5t40.5 99.5t-40.5 99.5t-97.5 41.5h-249
v-282h249z" />
    <glyph glyph-name="uni0413" unicode="&#x413;" horiz-adv-x="493" 
d="M470 700v-50h-330v-650h-53v700h383z" />
    <glyph glyph-name="uni0414" unicode="&#x414;" horiz-adv-x="690" 
d="M578 50h74v-184h-54v134h-526v-134h-54v184h56q72 81 72 251v399h432v-650zM199 300q0 -162 -62 -250h388v600h-326v-350z" />
    <glyph glyph-name="uni0415" unicode="&#x415;" horiz-adv-x="533" 
d="M140 50h350v-50h-403v700h398v-50h-345v-272h320v-50h-320v-278z" />
    <glyph glyph-name="uni0416" unicode="&#x416;" horiz-adv-x="836" 
d="M816 0h-63l-308 347v-347h-54v347l-308 -347h-63l318 360l-308 340h63l298 -327v327h54v-327l298 327h63l-308 -340z" />
    <glyph glyph-name="uni0417" unicode="&#x417;" horiz-adv-x="557" 
d="M387 362q61 -21 95.5 -67.5t34.5 -108.5q0 -86 -64.5 -141.5t-171.5 -55.5q-98 0 -157.5 42.5t-83.5 111.5l46 25q36 -129 195 -129q85 0 133.5 41t48.5 106q0 63 -44 104.5t-120 41.5h-79v50h56q74 0 118 39t44 100t-44.5 100.5t-116.5 39.5q-135 0 -180 -115l-44 25
q58 140 224 140q95 0 154.5 -54.5t59.5 -135.5q0 -53 -27.5 -94.5t-76.5 -64.5z" />
    <glyph glyph-name="uni0418" unicode="&#x418;" horiz-adv-x="687" 
d="M547 0v602l-414 -602h-46v700h53v-602l413 602h47v-700h-53z" />
    <glyph glyph-name="uni0419" unicode="&#x419;" horiz-adv-x="687" 
d="M216 787v44h253v-44h-253zM547 0v602l-414 -602h-46v700h53v-602l413 602h47v-700h-53z" />
    <glyph glyph-name="uni041A" unicode="&#x41a;" horiz-adv-x="572" 
d="M562 0h-71l-351 345v-345h-53v700h53v-326l341 326h71l-354 -340z" />
    <glyph glyph-name="uni041B" unicode="&#x41b;" horiz-adv-x="698" 
d="M18 0v47q74 -9 112.5 47.5t38.5 202.5v403h443v-700h-54v650h-336v-354q0 -168 -51.5 -236.5t-152.5 -59.5z" />
    <glyph glyph-name="uni041C" unicode="&#x41c;" horiz-adv-x="807" 
d="M720 700v-700h-53v622l-259 -430h-9l-259 430v-622h-53v700h66l250 -414l250 414h67z" />
    <glyph glyph-name="uni041D" unicode="&#x41d;" horiz-adv-x="687" 
d="M547 700h53v-700h-53v335h-407v-335h-53v700h53v-315h407v315z" />
    <glyph glyph-name="uni041E" unicode="&#x41e;" horiz-adv-x="816" 
d="M408 -11q-151 0 -256 105.5t-105 255.5t105 255.5t256 105.5t256 -105.5t105 -255.5t-105 -255.5t-256 -105.5zM408 40q129 0 218.5 90.5t89.5 219.5t-89.5 219.5t-218.5 90.5t-218.5 -90.5t-89.5 -219.5t89.5 -219.5t218.5 -90.5z" />
    <glyph glyph-name="uni041F" unicode="&#x41f;" horiz-adv-x="673" 
d="M587 700v-700h-54v650h-393v-650h-53v700h500z" />
    <glyph glyph-name="uni0420" unicode="&#x420;" horiz-adv-x="587" 
d="M325 700q94 0 156 -62t62 -155t-62 -154.5t-156 -61.5h-185v-267h-53v700h238zM325 317q72 0 118.5 47t46.5 119q0 73 -46.5 120t-118.5 47h-185v-333h185z" />
    <glyph glyph-name="uni0421" unicode="&#x421;" horiz-adv-x="751" 
d="M411 -11q-158 0 -261 104.5t-103 256.5t103 256.5t261 104.5q96 0 176 -45.5t124 -122.5l-47 -27q-35 65 -103 104.5t-150 39.5q-136 0 -223.5 -89.5t-87.5 -220.5t87.5 -220.5t223.5 -89.5q82 0 151 40t104 107l47 -27q-43 -78 -124 -124.5t-178 -46.5z" />
    <glyph glyph-name="uni0422" unicode="&#x422;" horiz-adv-x="540" 
d="M517 700v-50h-220v-650h-54v650h-220v50h494z" />
    <glyph glyph-name="uni0423" unicode="&#x423;" horiz-adv-x="566" 
d="M498 700h55l-233 -547q-70 -164 -213 -153v49q108 -12 160 110l12 28l-246 513h55l216 -453z" />
    <glyph glyph-name="uni0424" unicode="&#x424;" horiz-adv-x="804" 
d="M771 350q0 -125 -94.5 -195.5t-247.5 -75.5v-79h-54v79q-153 5 -247.5 75.5t-94.5 195.5t94.5 195.5t247.5 75.5v79h54v-79q153 -5 247.5 -75.5t94.5 -195.5zM87 350q0 -103 77.5 -160t210.5 -62v444q-133 -5 -210.5 -62t-77.5 -160zM429 128q133 5 210.5 62t77.5 160
t-77.5 160t-210.5 62v-444z" />
    <glyph glyph-name="uni0425" unicode="&#x425;" horiz-adv-x="573" 
d="M550 0h-61l-202 312l-202 -312h-62l233 360l-220 340h61l190 -293l189 293h61l-220 -340z" />
    <glyph glyph-name="uni0426" unicode="&#x426;" horiz-adv-x="690" 
d="M580 50h73v-184h-53v134h-513v700h53v-650h387v650h53v-650z" />
    <glyph glyph-name="uni0427" unicode="&#x427;" horiz-adv-x="627" 
d="M487 700h53v-700h-53v303q-95 -46 -197 -46t-161 55t-59 141v247h53v-247q0 -66 44 -106t123 -40q102 0 197 46v347z" />
    <glyph glyph-name="uni0428" unicode="&#x428;" horiz-adv-x="957" 
d="M817 700h53v-700h-783v700h53v-650h312v650h53v-650h312v650z" />
    <glyph glyph-name="uni0429" unicode="&#x429;" horiz-adv-x="980" 
d="M870 50h73v-184h-53v134h-803v700h53v-650h312v650h53v-650h312v650h53v-650z" />
    <glyph glyph-name="uni042A" unicode="&#x42a;" horiz-adv-x="693" 
d="M193 0v650h-193v50h247v-267h185q94 0 156 -62t62 -154q0 -93 -62 -155t-156 -62h-239zM247 50h185q72 0 118.5 47t46.5 120q0 72 -46.5 119t-118.5 47h-185v-333z" />
    <glyph glyph-name="uni042B" unicode="&#x42b;" horiz-adv-x="763" 
d="M87 0v700h53v-267h185q94 0 156 -61.5t62 -154.5t-62 -155t-156 -62h-238zM623 0v700h54v-700h-54zM140 50h185q72 0 118.5 47t46.5 120q0 72 -46.5 119t-118.5 47h-185v-333z" />
    <glyph glyph-name="uni042C" unicode="&#x42c;" horiz-adv-x="587" 
d="M325 433q94 0 156 -61.5t62 -154.5t-62 -155t-156 -62h-238v700h53v-267h185zM325 50q72 0 118.5 47t46.5 120q0 72 -46.5 119t-118.5 47h-185v-333h185z" />
    <glyph glyph-name="uni042D" unicode="&#x42d;" horiz-adv-x="748" 
d="M340 711q158 0 259.5 -104.5t101.5 -256.5t-101.5 -256.5t-259.5 -104.5q-97 0 -178 46.5t-124 124.5l48 27q35 -67 103.5 -107t150.5 -40q129 0 214 81.5t93 203.5h-395v50h395q-8 122 -93 203.5t-214 81.5q-81 0 -149 -39.5t-104 -104.5l-47 27q44 77 124.5 122.5
t175.5 45.5z" />
    <glyph glyph-name="uni042E" unicode="&#x42e;" horiz-adv-x="1047" 
d="M639 711q151 0 256 -105.5t105 -255.5t-105 -255.5t-256 -105.5q-148 0 -250.5 100t-108.5 246h-140v-335h-53v700h53v-315h142q13 139 114 232.5t243 93.5zM639 40q129 0 218.5 90.5t89.5 219.5t-89.5 219.5t-218.5 90.5q-130 0 -219 -90t-89 -220t89 -220t219 -90z" />
    <glyph glyph-name="uni042F" unicode="&#x42f;" horiz-adv-x="627" 
d="M540 700v-700h-53v287h-192l-198 -287h-60l199 289q-76 10 -127.5 68t-51.5 136q0 86 60.5 146.5t145.5 60.5h277zM263 337h224v313h-224q-63 0 -108 -46t-45 -111q0 -64 45 -110t108 -46z" />
    <glyph glyph-name="uni0430" unicode="&#x430;" horiz-adv-x="645" 
d="M517 500h51v-500h-51v113q-32 -58 -88 -91t-127 -33q-107 0 -183 75.5t-76 185.5t76 185.5t183 75.5q71 0 127 -33t88 -91v113zM306 37q89 0 150 62t61 151t-61 151t-150 62t-150.5 -62t-61.5 -151t61.5 -151t150.5 -62z" />
    <glyph glyph-name="uni0431" unicode="&#x431;" horiz-adv-x="571" 
d="M295 -12q-108 0 -180 71.5t-72 185.5q0 125 36.5 193.5t150.5 124.5q22 10 52 23t48.5 20.5t40 19t34.5 22.5t23 27.5t13 37.5l40 -23q-5 -28 -18.5 -49t-40 -38.5t-46 -27.5t-60.5 -27t-59 -25q-74 -33 -108.5 -72t-46.5 -105q35 55 91 82t113 27q100 0 166 -66t66 -168
q0 -101 -68.5 -167t-174.5 -66zM295 38q84 0 138 51.5t54 131.5q0 81 -52 133t-135 52q-76 0 -136.5 -48t-66.5 -124q0 -86 56 -141t142 -55z" />
    <glyph glyph-name="uni0432" unicode="&#x432;" horiz-adv-x="507" 
d="M385 258q88 -29 88 -120q0 -60 -39.5 -99t-114.5 -39h-242v500h223q71 0 110 -37t39 -94q0 -80 -64 -111zM300 451h-173v-173h173q48 0 73 23t25 65q0 40 -25.5 62.5t-72.5 22.5zM319 49q50 0 77 24t27 67q0 42 -27.5 65.5t-76.5 23.5h-192v-180h192z" />
    <glyph glyph-name="uni0433" unicode="&#x433;" horiz-adv-x="402" 
d="M390 500v-49h-263v-451h-50v500h313z" />
    <glyph glyph-name="uni0434" unicode="&#x434;" horiz-adv-x="590" 
d="M487 49h70v-183h-51v134h-432v-134h-51v183h58q55 75 55 201v250h351v-451zM143 49h293v402h-250v-201q0 -123 -43 -201z" />
    <glyph glyph-name="uni0435" unicode="&#x435;" horiz-adv-x="589" 
d="M302 511q110 0 178.5 -78t68.5 -185q0 -4 -0.5 -12t-0.5 -12h-453q9 -84 67.5 -135.5t144.5 -51.5q60 0 105 25t68 66l44 -26q-31 -52 -88 -82.5t-130 -30.5q-115 0 -189 73.5t-74 187.5q0 112 72.5 186.5t186.5 74.5zM302 463q-85 0 -142 -53t-65 -137h402
q-8 89 -63.5 139.5t-131.5 50.5z" />
    <glyph glyph-name="uni0436" unicode="&#x436;" horiz-adv-x="663" 
d="M640 0h-62l-221 246v-246h-51v246l-221 -246h-62l237 260l-227 240h62l211 -226v226h51v-226l211 226h62l-226 -240z" />
    <glyph glyph-name="uni0437" unicode="&#x437;" horiz-adv-x="445" 
d="M317 258q45 -15 70 -48t25 -76q0 -61 -48 -103t-136 -42q-150 0 -195 118l43 25q32 -95 152 -95q62 0 97.5 27.5t35.5 72.5q0 41 -30 66.5t-80 25.5h-69v49h50q49 0 77 25t28 67q0 40 -32.5 66.5t-85.5 26.5q-102 0 -135 -81l-42 24q21 48 66 76.5t111 28.5
q77 0 122.5 -40.5t45.5 -98.5q0 -81 -70 -114z" />
    <glyph glyph-name="uni0438" unicode="&#x438;" horiz-adv-x="567" 
d="M446 500h44v-500h-51v413l-318 -413h-44v500h50v-413z" />
    <glyph glyph-name="uni0439" unicode="&#x439;" horiz-adv-x="567" 
d="M156 587v44h253v-44h-253zM446 500h44v-500h-51v413l-318 -413h-44v500h50v-413z" />
    <glyph glyph-name="uni043A" unicode="&#x43a;" horiz-adv-x="483" 
d="M460 0h-68l-265 246v-246h-50v500h50v-227l253 227h70l-269 -240z" />
    <glyph glyph-name="uni043B" unicode="&#x43b;" horiz-adv-x="560" 
d="M483 500v-500h-50v451h-252v-241q0 -122 -45 -169t-123 -41v47q60 -5 89 32t29 131v290h352z" />
    <glyph glyph-name="uni043C" unicode="&#x43c;" horiz-adv-x="637" 
d="M560 500v-500h-51v424l-187 -295h-7l-188 297v-426h-50v500h59l182 -287l182 287h60z" />
    <glyph glyph-name="uni043D" unicode="&#x43d;" horiz-adv-x="567" 
d="M439 500h51v-500h-51v226h-312v-226h-50v500h50v-226h312v226z" />
    <glyph glyph-name="uni043E" unicode="&#x43e;" horiz-adv-x="611" 
d="M306 -11q-110 0 -186.5 75.5t-76.5 185.5t76.5 185.5t186.5 75.5q109 0 185.5 -75.5t76.5 -185.5t-76.5 -185.5t-185.5 -75.5zM306 37q89 0 150 62t61 151t-61 151t-150 62t-150.5 -62t-61.5 -151t61.5 -151t150.5 -62z" />
    <glyph glyph-name="uni043F" unicode="&#x43f;" horiz-adv-x="567" 
d="M490 500v-500h-51v451h-312v-451h-50v500h413z" />
    <glyph glyph-name="uni0440" unicode="&#x440;" horiz-adv-x="645" 
d="M342 511q108 0 183.5 -75.5t75.5 -185.5t-75.5 -185.5t-183.5 -75.5q-71 0 -127.5 34t-87.5 93v-316h-50v700h50v-116q31 59 87.5 93t127.5 34zM339 37q89 0 150.5 62t61.5 151t-61.5 151t-150.5 62t-150.5 -62t-61.5 -151t61.5 -151t150.5 -62z" />
    <glyph glyph-name="uni0441" unicode="&#x441;" horiz-adv-x="561" 
d="M306 -11q-113 0 -188 75t-75 186t75 186t188 75q73 0 132 -34.5t86 -93.5l-41 -24q-22 48 -69.5 76t-107.5 28q-90 0 -151 -61.5t-61 -151.5t61 -151.5t151 -61.5q60 0 107.5 28t72.5 76l42 -25q-30 -58 -89.5 -92.5t-132.5 -34.5z" />
    <glyph glyph-name="uni0442" unicode="&#x442;" horiz-adv-x="440" 
d="M427 500v-49h-182v-451h-50v451h-182v49h414z" />
    <glyph glyph-name="uni0443" unicode="&#x443;" horiz-adv-x="510" 
d="M443 500h54l-216 -546q-29 -74 -82 -116.5t-116 -37.5v47q48 -4 86.5 27.5t62.5 89.5l11 27l-230 509h54l202 -445z" />
    <glyph glyph-name="uni0444" unicode="&#x444;" horiz-adv-x="670" 
d="M627 250q0 -107 -73.5 -180.5t-193.5 -80.5v-189h-50v189q-120 7 -193.5 80.5t-73.5 180.5t73.5 180.5t193.5 80.5v189h50v-189q120 -7 193.5 -80.5t73.5 -180.5zM94 250q0 -87 59 -146t157 -66v424q-98 -7 -157 -66t-59 -146zM360 38q98 7 157 66t59 146t-59 146
t-157 66v-424z" />
    <glyph glyph-name="uni0445" unicode="&#x445;" horiz-adv-x="507" 
d="M483 0h-61l-169 218l-169 -218h-61l200 257l-188 243h61l157 -203l158 203h60l-187 -242z" />
    <glyph glyph-name="uni0446" unicode="&#x446;" horiz-adv-x="593" 
d="M480 49h80v-183h-51v134h-432v500h50v-451h302v451h51v-451z" />
    <glyph glyph-name="uni0447" unicode="&#x447;" horiz-adv-x="537" 
d="M409 500h51v-500h-51v196q-66 -33 -152 -33q-96 0 -148 44.5t-52 129.5v163h50v-163q0 -126 148 -126q82 0 154 32v257z" />
    <glyph glyph-name="uni0448" unicode="&#x448;" horiz-adv-x="817" 
d="M689 500h51v-500h-663v500h50v-451h256v451h51v-451h255v451z" />
    <glyph glyph-name="uni0449" unicode="&#x449;" horiz-adv-x="843" 
d="M740 49h70v-183h-51v134h-682v500h50v-451h256v451h51v-451h255v451h51v-451z" />
    <glyph glyph-name="uni044A" unicode="&#x44a;" horiz-adv-x="540" 
d="M341 306q69 0 117.5 -43t48.5 -110t-48.5 -110t-117.5 -43h-198v451h-143v49h194v-194h147zM341 49q49 0 82 29t33 75q0 47 -33 75.5t-82 28.5h-147v-208h147z" />
    <glyph glyph-name="uni044B" unicode="&#x44b;" horiz-adv-x="644" 
d="M275 306q69 0 117 -43t48 -110t-48 -110t-117 -43h-198v500h50v-194h148zM517 500h50v-500h-50v500zM275 49q48 0 81 29t33 75q0 47 -32.5 75.5t-81.5 28.5h-148v-208h148z" />
    <glyph glyph-name="uni044C" unicode="&#x44c;" horiz-adv-x="473" 
d="M275 306q69 0 117 -43t48 -110t-48 -110t-117 -43h-198v500h50v-194h148zM275 49q48 0 81 29t33 75q0 47 -32.5 75.5t-81.5 28.5h-148v-208h148z" />
    <glyph glyph-name="uni044D" unicode="&#x44d;" horiz-adv-x="549" 
d="M253 511q114 0 183.5 -74t69.5 -187t-70 -187t-184 -74q-80 0 -139 34.5t-86 93.5l43 26q20 -49 67.5 -77.5t114.5 -28.5q85 0 139.5 53.5t62.5 135.5h-259v48h259q-8 83 -62 136t-139 53q-62 0 -109.5 -28t-70.5 -77l-44 25q30 59 89 93.5t135 34.5z" />
    <glyph glyph-name="uni044E" unicode="&#x44e;" horiz-adv-x="803" 
d="M498 511q109 0 185.5 -75.5t76.5 -185.5t-76.5 -185.5t-185.5 -75.5q-103 0 -176.5 67.5t-82.5 169.5h-112v-226h-50v500h50v-226h112q9 102 82.5 169.5t176.5 67.5zM498 37q89 0 150 62t61 151t-61 151t-150 62t-150.5 -62t-61.5 -151t61.5 -151t150.5 -62z" />
    <glyph glyph-name="uni044F" unicode="&#x44f;" horiz-adv-x="500" 
d="M423 500v-500h-50v195h-108l-157 -195h-65l160 196q-61 7 -102 48.5t-41 102.5q0 67 48 110t117 43h198zM225 243h148v208h-148q-48 0 -81 -29t-33 -75q0 -47 32.5 -75.5t81.5 -28.5z" />
    <glyph glyph-name="uni0451" unicode="&#x451;" horiz-adv-x="589" 
d="M206 577q-16 0 -26.5 10.5t-10.5 25.5q0 16 10.5 26.5t26.5 10.5q15 0 25.5 -10.5t10.5 -26.5q0 -15 -10.5 -25.5t-25.5 -10.5zM386 577q-16 0 -26.5 10.5t-10.5 25.5q0 16 10.5 26.5t26.5 10.5q15 0 25.5 -10.5t10.5 -26.5q0 -15 -10.5 -25.5t-25.5 -10.5zM302 511
q110 0 178.5 -78t68.5 -185q0 -4 -0.5 -12t-0.5 -12h-453q9 -84 67.5 -135.5t144.5 -51.5q60 0 105 25t68 66l44 -26q-31 -52 -88 -82.5t-130 -30.5q-115 0 -189 73.5t-74 187.5q0 112 72.5 186.5t186.5 74.5zM302 463q-85 0 -142 -53t-65 -137h402q-8 89 -63.5 139.5
t-131.5 50.5z" />
    <glyph glyph-name="uni0452" unicode="&#x452;" horiz-adv-x="577" 
d="M319 511q89 0 141.5 -54.5t52.5 -145.5v-368q0 -80 -43 -120.5t-123 -33.5v48q116 -12 116 106v368q0 70 -39 111t-109 41q-77 0 -125.5 -51t-48.5 -148v-264h-51v582h-73v42h73v76h51v-76h156v-42h-156v-175q55 104 178 104z" />
    <glyph glyph-name="uni0453" unicode="&#x453;" horiz-adv-x="402" 
d="M307 697l-91 -127h-49l80 127h60zM390 500v-49h-263v-451h-50v500h313z" />
    <glyph glyph-name="uni0454" unicode="&#x454;" horiz-adv-x="549" 
d="M479 143l43 -26q-27 -59 -86 -93.5t-139 -34.5q-114 0 -184 74t-70 187t69.5 187t183.5 74q76 0 135 -34.5t89 -93.5l-44 -25q-23 49 -70.5 77t-109.5 28q-85 0 -139 -53t-62 -136h259v-48h-259q8 -82 62.5 -135.5t139.5 -53.5q67 0 114.5 28.5t67.5 77.5z" />
    <glyph glyph-name="uni0455" unicode="&#x455;" horiz-adv-x="458" 
d="M111 369q0 -37 31 -58t75.5 -31.5t89.5 -23.5t76 -43.5t31 -81.5q0 -62 -49.5 -102t-129.5 -40q-72 0 -121.5 30.5t-68.5 80.5l43 25q14 -41 52.5 -64.5t94.5 -23.5t92.5 24.5t36.5 69.5q0 37 -31 59t-76 32.5t-89.5 23.5t-75.5 43t-31 80q0 60 47.5 101t122.5 41
q60 0 104.5 -27t65.5 -73l-42 -24q-15 37 -50 56.5t-78 19.5q-51 0 -85.5 -25.5t-34.5 -68.5z" />
    <glyph glyph-name="uni0456" unicode="&#x456;" horiz-adv-x="204" 
d="M102 621q-16 0 -28 11.5t-12 28.5q0 16 12 27.5t28 11.5t28 -11.5t12 -27.5q0 -17 -12 -28.5t-28 -11.5zM77 0v500h50v-500h-50z" />
    <glyph glyph-name="uni0457" unicode="&#x457;" horiz-adv-x="204" 
d="M12 577q-16 0 -26.5 10.5t-10.5 25.5q0 16 10.5 26.5t26.5 10.5q15 0 25.5 -10.5t10.5 -26.5q0 -15 -10.5 -25.5t-25.5 -10.5zM192 577q-16 0 -26.5 10.5t-10.5 25.5q0 16 10.5 26.5t26.5 10.5q15 0 25.5 -10.5t10.5 -26.5q0 -15 -10.5 -25.5t-25.5 -10.5zM77 0v500h50
v-500h-50z" />
    <glyph glyph-name="uni0458" unicode="&#x458;" horiz-adv-x="223" 
d="M121 700q16 0 28 -11.5t12 -27.5q0 -17 -11.5 -28.5t-28.5 -11.5t-28.5 11.5t-11.5 28.5q0 16 12 27.5t28 11.5zM96 -57v557h50v-557q0 -80 -43 -120.5t-123 -33.5v48q116 -12 116 106z" />
    <glyph glyph-name="uni0459" unicode="&#x459;" horiz-adv-x="803" 
d="M614 286q66 0 110.5 -38t44.5 -105t-44.5 -105t-110.5 -38h-191v451h-242v-241q0 -122 -45 -169t-123 -41v47q60 -5 89 32t29 131v290h342v-214h141zM614 49q46 0 75.5 24.5t29.5 69.5q0 46 -29.5 70t-75.5 24h-141v-188h141z" />
    <glyph glyph-name="uni045A" unicode="&#x45a;" horiz-adv-x="796" 
d="M607 286q67 0 111.5 -38t44.5 -105t-44.5 -105t-111.5 -38h-191v237h-292v-237h-51v500h51v-214h292v214h51v-214h140zM607 49q46 0 75.5 24.5t29.5 69.5q0 46 -29 70t-76 24h-140v-188h140z" />
    <glyph glyph-name="uni045B" unicode="&#x45b;" horiz-adv-x="577" 
d="M319 511q89 0 141.5 -54.5t52.5 -145.5v-311h-50v311q0 70 -39 111t-109 41q-77 0 -125.5 -51t-48.5 -148v-264h-51v582h-73v42h73v76h51v-76h156v-42h-156v-175q55 104 178 104z" />
    <glyph glyph-name="uni045C" unicode="&#x45c;" horiz-adv-x="483" 
d="M341 697l-91 -127h-49l80 127h60zM460 0h-68l-265 246v-246h-50v500h50v-227l253 227h70l-269 -240z" />
    <glyph glyph-name="uni045E" unicode="&#x45e;" horiz-adv-x="510" 
d="M384 631v-44h-253v44h253zM443 500h54l-216 -546q-29 -74 -82 -116.5t-116 -37.5v47q48 -4 86.5 27.5t62.5 89.5l11 27l-230 509h54l202 -445z" />
    <glyph glyph-name="uni045F" unicode="&#x45f;" horiz-adv-x="567" 
d="M439 500h51v-500h-181v-134h-51v134h-181v500h50v-451h312v451z" />
    <glyph glyph-name="uni0490" unicode="&#x490;" horiz-adv-x="493" 
d="M417 820h53v-170h-330v-650h-53v700h330v120z" />
    <glyph glyph-name="uni0491" unicode="&#x491;" horiz-adv-x="402" 
d="M339 604h51v-153h-263v-451h-50v500h262v104z" />
    <glyph glyph-name="Wgrave" unicode="&#x1e80;" horiz-adv-x="993" 
d="M522 770l-80 127h-60l92 -127h48zM236 0l-203 700h56l181 -629l195 629h63l196 -629l180 629h56l-203 -700h-64l-196 631l-197 -631h-64z" />
    <glyph glyph-name="wgrave" unicode="&#x1e81;" horiz-adv-x="770" 
d="M433 570h-48l-92 127h60zM684 500h53l-158 -500h-55l-139 426l-139 -426h-55l-158 500h53l133 -435l140 435h52l140 -435z" />
    <glyph glyph-name="Wacute" unicode="&#x1e82;" horiz-adv-x="993" 
d="M432 770h49l91 127h-60zM236 0l-203 700h56l181 -629l195 629h63l196 -629l180 629h56l-203 -700h-64l-196 631l-197 -631h-64z" />
    <glyph glyph-name="wacute" unicode="&#x1e83;" horiz-adv-x="770" 
d="M483 697l-91 -127h-49l80 127h60zM684 500h53l-158 -500h-55l-139 426l-139 -426h-55l-158 500h53l133 -435l140 435h52l140 -435z" />
    <glyph glyph-name="Wdieresis" unicode="&#x1e84;" horiz-adv-x="993" 
d="M384 777q-16 0 -26.5 10.5t-10.5 25.5q0 16 10.5 26.5t26.5 10.5q15 0 25.5 -10.5t10.5 -26.5q0 -15 -10.5 -25.5t-25.5 -10.5zM564 777q-16 0 -26.5 10.5t-10.5 25.5q0 16 10.5 26.5t26.5 10.5q15 0 25.5 -10.5t10.5 -26.5q0 -15 -10.5 -25.5t-25.5 -10.5zM236 0
l-203 700h56l181 -629l195 629h63l196 -629l180 629h56l-203 -700h-64l-196 631l-197 -631h-64z" />
    <glyph glyph-name="wdieresis" unicode="&#x1e85;" horiz-adv-x="770" 
d="M295 577q-16 0 -26.5 10.5t-10.5 25.5q0 16 10.5 26.5t26.5 10.5q15 0 25.5 -10.5t10.5 -26.5q0 -15 -10.5 -25.5t-25.5 -10.5zM475 577q-16 0 -26.5 10.5t-10.5 25.5q0 16 10.5 26.5t26.5 10.5q15 0 25.5 -10.5t10.5 -26.5q0 -15 -10.5 -25.5t-25.5 -10.5zM684 500h53
l-158 -500h-55l-139 426l-139 -426h-55l-158 500h53l133 -435l140 435h52l140 -435z" />
    <glyph glyph-name="Ygrave" unicode="&#x1ef2;" horiz-adv-x="583" 
d="M337 770h-48l-92 127h60zM573 700l-255 -412v-288h-53v288l-255 412h60l222 -361l221 361h60z" />
    <glyph glyph-name="ygrave" unicode="&#x1ef3;" horiz-adv-x="510" 
d="M306 570h-48l-92 127h60zM443 500h54l-216 -546q-29 -74 -82 -116.5t-116 -37.5v47q48 -4 86.5 27.5t62.5 89.5l11 27l-230 509h54l202 -445z" />
    <glyph glyph-name="endash" unicode="&#x2013;" horiz-adv-x="673" 
d="M87 285v48h500v-48h-500z" />
    <glyph glyph-name="emdash" unicode="&#x2014;" horiz-adv-x="773" 
d="M87 285v48h600v-48h-600z" />
    <glyph glyph-name="quoteleft" unicode="&#x2018;" horiz-adv-x="223" 
d="M61 492l54 208h46l-38 -208h-62z" />
    <glyph glyph-name="quoteright" unicode="&#x2019;" horiz-adv-x="223" 
d="M162 700l-54 -208h-46l38 208h62z" />
    <glyph glyph-name="quotesinglbase" unicode="&#x201a;" horiz-adv-x="223" 
d="M162 68l-54 -208h-46l38 208h62z" />
    <glyph glyph-name="quotedblleft" unicode="&#x201c;" horiz-adv-x="350" 
d="M61 492l54 208h46l-38 -208h-62zM188 492l54 208h46l-38 -208h-62z" />
    <glyph glyph-name="quotedblright" unicode="&#x201d;" horiz-adv-x="350" 
d="M162 700l-54 -208h-46l38 208h62zM289 700l-54 -208h-46l38 208h62z" />
    <glyph glyph-name="quotedblbase" unicode="&#x201e;" horiz-adv-x="350" 
d="M162 68l-54 -208h-46l38 208h62zM289 68l-54 -208h-46l38 208h62z" />
    <glyph glyph-name="dagger" unicode="&#x2020;" horiz-adv-x="473" 
d="M410 527v-48h-148v-479h-51v479h-148v48h148v173h51v-173h148z" />
    <glyph glyph-name="daggerdbl" unicode="&#x2021;" horiz-adv-x="473" 
d="M410 479h-148v-258h148v-48h-148v-173h-51v173h-148v48h148v258h-148v48h148v173h51v-173h148v-48z" />
    <glyph glyph-name="bullet" unicode="&#x2022;" horiz-adv-x="280" 
d="M141 263q-37 0 -62.5 25.5t-25.5 62.5q0 36 25.5 61t62.5 25q36 0 61 -25t25 -61q0 -37 -25 -62.5t-61 -25.5z" />
    <glyph glyph-name="ellipsis" unicode="&#x2026;" horiz-adv-x="593" 
d="M107 -10q-19 0 -32 13t-13 32t13 32t32 13t32 -13t13 -32t-13 -32t-32 -13zM297 -10q-19 0 -32 13t-13 32t13 32t32 13t32 -13t13 -32t-13 -32t-32 -13zM487 -10q-19 0 -32 13t-13 32t13 32t32 13t32 -13t13 -32t-13 -32t-32 -13z" />
    <glyph glyph-name="perthousand" unicode="&#x2030;" horiz-adv-x="1076" 
d="M216 413q-66 0 -109.5 43t-43.5 106t43.5 106t109.5 43t109.5 -43t43.5 -106t-43 -106t-110 -43zM216 459q45 0 74.5 29.5t29.5 73.5t-29.5 73.5t-74.5 29.5t-74 -29.5t-29 -73.5t29 -73.5t74 -29.5zM101 90l475 534l34 -19l-476 -534zM499 -11q-66 0 -109.5 43
t-43.5 106t43.5 106t109.5 43t109.5 -43t43.5 -106t-43.5 -106t-109.5 -43zM859 -11q-66 0 -109.5 43t-43.5 106t43.5 106t109.5 43t109.5 -43t43.5 -106t-43.5 -106t-109.5 -43zM499 35q45 0 74.5 29.5t29.5 73.5t-29.5 73.5t-74.5 29.5t-74 -29.5t-29 -73.5t29 -73.5
t74 -29.5zM859 35q45 0 74.5 29.5t29.5 73.5t-29.5 73.5t-74.5 29.5t-74 -29.5t-29 -73.5t29 -73.5t74 -29.5z" />
    <glyph glyph-name="guilsinglleft" unicode="&#x2039;" horiz-adv-x="329" 
d="M249 482l-107 -173l107 -173h-62l-107 173l107 173h62z" />
    <glyph glyph-name="guilsinglright" unicode="&#x203a;" horiz-adv-x="329" 
d="M142 482l107 -173l-107 -173h-62l107 173l-107 173h62z" />
    <glyph glyph-name="fraction" unicode="&#x2044;" horiz-adv-x="227" 
d="M-67 0h-46l406 700h47z" />
    <glyph glyph-name="Euro" unicode="&#x20ac;" horiz-adv-x="602" 
d="M367 40q117 0 161 109l44 -25q-26 -64 -79 -99.5t-126 -35.5q-108 0 -176.5 75t-85.5 204h-82v45h78q-1 12 -1 37q0 29 1 43h-78v44h83q17 127 85.5 200.5t175.5 73.5q73 0 126 -35t79 -99l-44 -25q-21 52 -63 80t-98 28q-82 0 -137 -58.5t-71 -164.5h268v-44h-273
q-1 -14 -1 -43q0 -25 1 -37h273v-45h-269q16 -109 71 -168.5t138 -59.5z" />
    <glyph glyph-name="uni20BD" unicode="&#x20bd;" horiz-adv-x="577" 
d="M343 287h-186v-104h266v-44h-266v-139h-54v139h-90v44h90v104h-90v50h90v363h240q85 0 146 -61t61 -146t-61 -145.5t-146 -60.5zM157 650v-313h186q64 0 109 45.5t45 110.5t-45 111t-109 46h-186z" />
    <glyph glyph-name="uni2116" unicode="&#x2116;" horiz-adv-x="1019" 
d="M826 418q-64 0 -107 42.5t-43 103.5t43 104t107 43t107 -43t43 -104q0 -62 -42.5 -104t-107.5 -42zM547 700h53v-700h-47l-413 602v-602h-53v700h46l414 -602v602zM826 464q44 0 72 28.5t28 71.5t-28.5 72t-71.5 29t-71.5 -29t-28.5 -72q0 -42 28.5 -71t71.5 -29z
M688 290v49h277v-49h-277z" />
    <glyph glyph-name="trademark" unicode="&#x2122;" horiz-adv-x="478" 
d="M201 700v-31h-59v-169h-33v169h-59v31h151zM395 700h33v-200h-33v143l-65 -104h-4l-65 104v-143h-33v200h33l67 -107z" />
    <glyph glyph-name="estimated" unicode="&#x212e;" horiz-adv-x="833" 
d="M417 710q163 0 266.5 -104t103.5 -256q0 -15 -15 -15h-560q-15 0 -15 -15v-192q0 -11 7 -19q84 -89 233 -89q145 0 231 97q8 9 18 9h37q10 0 13 -6t-4 -13q-109 -117 -295 -117q-176 0 -283 103.5t-107 256.5q0 152 103.5 256t266.5 104zM637 572q0 11 -7 19
q-84 89 -213 89t-213 -89q-7 -8 -7 -19v-192q0 -15 15 -15h410q15 0 15 15v192z" />
    <glyph glyph-name="oneeighth" unicode="&#x215b;" horiz-adv-x="815" 
d="M174 300h-48v346l-100 -33l-13 42l123 45h38v-400zM539 700h47l-407 -700h-46zM715 210q70 -32 70 -106q0 -53 -39 -84.5t-102 -31.5t-102.5 31.5t-39.5 84.5q0 36 19 63.5t52 42.5q-58 31 -58 90q0 52 37 82t92 30q54 0 91 -30t37 -82q0 -59 -57 -90zM644 367
q-37 0 -59 -18t-22 -49t22.5 -49.5t58.5 -18.5q35 0 57.5 18.5t22.5 49.5t-22 49t-58 18zM644 34q43 0 68 20.5t25 55.5t-26 55.5t-67 20.5q-43 0 -68.5 -20.5t-25.5 -55.5t25.5 -55.5t68.5 -20.5z" />
    <glyph glyph-name="threeeighths" unicode="&#x215c;" horiz-adv-x="918" 
d="M308 415q0 -56 -38.5 -91.5t-103.5 -35.5q-101 0 -138 81l40 23q26 -58 98 -58q46 0 70 22.5t24 58.5t-25 59t-69 23h-4l-23 35l97 122h-196v46h252v-46l-96 -119q53 -7 82.5 -39.5t29.5 -80.5zM642 700h47l-407 -700h-46zM818 210q70 -32 70 -106q0 -53 -39 -84.5
t-102 -31.5t-102.5 31.5t-39.5 84.5q0 36 19 63.5t52 42.5q-58 31 -58 90q0 52 37 82t92 30q54 0 91 -30t37 -82q0 -59 -57 -90zM747 367q-37 0 -59 -18t-22 -49t22.5 -49.5t58.5 -18.5q35 0 57.5 18.5t22.5 49.5t-22 49t-58 18zM747 34q43 0 68 20.5t25 55.5t-26 55.5
t-67 20.5q-43 0 -68.5 -20.5t-25.5 -55.5t25.5 -55.5t68.5 -20.5z" />
    <glyph glyph-name="fiveeighths" unicode="&#x215d;" horiz-adv-x="908" 
d="M301 415q0 -57 -38 -92t-102 -35q-99 0 -136 80l41 23q25 -57 95 -57q43 0 67.5 22t24.5 59q0 39 -24.5 61.5t-67.5 22.5h-118l15 201h227v-45h-186l-7 -110h70q62 0 100.5 -36t38.5 -94zM632 700h47l-407 -700h-46zM808 210q70 -32 70 -106q0 -53 -39 -84.5t-102 -31.5
t-102.5 31.5t-39.5 84.5q0 36 19 63.5t52 42.5q-58 31 -58 90q0 52 37 82t92 30q54 0 91 -30t37 -82q0 -59 -57 -90zM737 367q-37 0 -59 -18t-22 -49t22.5 -49.5t58.5 -18.5q35 0 57.5 18.5t22.5 49.5t-22 49t-58 18zM737 34q43 0 68 20.5t25 55.5t-26 55.5t-67 20.5
q-43 0 -68.5 -20.5t-25.5 -55.5t25.5 -55.5t68.5 -20.5z" />
    <glyph glyph-name="seveneighths" unicode="&#x215e;" horiz-adv-x="878" 
d="M283 700v-39l-155 -361h-51l153 354h-213v46h266zM602 700h47l-407 -700h-46zM778 210q70 -32 70 -106q0 -53 -39 -84.5t-102 -31.5t-102.5 31.5t-39.5 84.5q0 36 19 63.5t52 42.5q-58 31 -58 90q0 52 37 82t92 30q54 0 91 -30t37 -82q0 -59 -57 -90zM707 367
q-37 0 -59 -18t-22 -49t22.5 -49.5t58.5 -18.5q35 0 57.5 18.5t22.5 49.5t-22 49t-58 18zM707 34q43 0 68 20.5t25 55.5t-26 55.5t-67 20.5q-43 0 -68.5 -20.5t-25.5 -55.5t25.5 -55.5t68.5 -20.5z" />
    <glyph glyph-name="arrowleft" unicode="&#x2190;" horiz-adv-x="827" 
d="M763 374v-48h-607l276 -276h-69l-300 300l300 300h69l-276 -276h607z" />
    <glyph glyph-name="arrowup" unicode="&#x2191;" horiz-adv-x="727" 
d="M663 400v-69l-274 274v-605h-51v606l-275 -275v69l300 300z" />
    <glyph glyph-name="arrowright" unicode="&#x2192;" horiz-adv-x="827" 
d="M463 650l300 -300l-300 -300h-69l276 276h-607v48h607l-276 276h69z" />
    <glyph glyph-name="arrowdown" unicode="&#x2193;" horiz-adv-x="727" 
d="M389 95l274 274v-69l-300 -300l-300 300v69l275 -275v606h51v-605z" />
    <glyph glyph-name="arrowboth" unicode="&#x2194;" horiz-adv-x="1033" 
d="M724 597l246 -247l-246 -247h-69l222 223h-721l222 -223h-69l-246 247l246 247h69l-222 -223h721l-222 223h69z" />
    <glyph glyph-name="arrowupdn" unicode="&#x2195;" horiz-adv-x="627" 
d="M560 488l-221 220v-716l221 220v-69l-247 -246l-246 246v69l221 -221v718l-221 -221v69l246 246l247 -246v-69z" />
    <glyph glyph-name="uni2196" unicode="&#x2196;" horiz-adv-x="639" 
d="M576 111l-36 -37l-428 428v-387l-49 48v424h424l49 -48h-389z" />
    <glyph glyph-name="uni2197" unicode="&#x2197;" horiz-adv-x="639" 
d="M152 587h424v-424l-48 -48v388l-428 -429l-37 37l429 428h-388z" />
    <glyph glyph-name="uni2198" unicode="&#x2198;" horiz-adv-x="639" 
d="M528 561l48 -48v-424h-424l-48 48h388l-429 428l37 37l428 -429v388z" />
    <glyph glyph-name="uni2199" unicode="&#x2199;" horiz-adv-x="639" 
d="M576 565l-429 -428h389l-49 -48h-424v424l49 48v-387l428 428z" />
    <glyph glyph-name="partialdiff" unicode="&#x2202;" horiz-adv-x="577" 
d="M233 711q120 0 200.5 -99.5t80.5 -261.5q0 -170 -71.5 -265.5t-184.5 -95.5q-94 0 -149.5 60t-55.5 151q0 103 60.5 166.5t166.5 63.5q103 0 183 -56q-5 123 -67 205.5t-163 82.5q-70 0 -127 -34v49q54 34 127 34zM258 37q90 0 144.5 76t59.5 209q-79 59 -182 59
q-81 0 -128.5 -47.5t-47.5 -133.5q0 -72 40.5 -117.5t113.5 -45.5z" />
    <glyph glyph-name="emptyset" unicode="&#x2205;" horiz-adv-x="817" 
d="M656 615q115 -107 115 -265q0 -150 -106 -255.5t-256 -105.5q-119 0 -214 70l-66 -79h-55l88 106q-115 107 -115 264q0 150 106 255.5t256 105.5q119 0 214 -70l65 79h55zM93 350q0 -137 98 -230l403 487q-82 60 -185 60q-131 0 -223.5 -92.5t-92.5 -224.5zM409 33
q131 0 223 92.5t92 224.5q0 136 -97 230l-404 -487q82 -60 186 -60z" />
    <glyph glyph-name="product" unicode="&#x220f;" horiz-adv-x="640" 
d="M87 -200v900h466v-900h-50v851h-366v-851h-50z" />
    <glyph glyph-name="summation" unicode="&#x2211;" horiz-adv-x="541" 
d="M57 -200v49l253 411l-239 390v50h421v-49h-364l240 -391l-253 -411h392v-49h-450z" />
    <glyph glyph-name="minus" unicode="&#x2212;" horiz-adv-x="540" 
d="M63 326v48h414v-48h-414z" />
    <glyph glyph-name="radical" unicode="&#x221a;" horiz-adv-x="639" 
d="M295 0l-148 251h-84v49h113l140 -240l246 740h54l-267 -800h-54z" />
    <glyph glyph-name="infinity" unicode="&#x221e;" horiz-adv-x="806" 
d="M590 507q67 0 111.5 -44.5t44.5 -112.5t-44.5 -112.5t-111.5 -44.5q-58 0 -101.5 32t-85.5 86q-41 -53 -84.5 -85.5t-102.5 -32.5q-67 0 -111.5 44.5t-44.5 112.5t44.5 112.5t111.5 44.5q59 0 102.5 -32.5t84.5 -85.5q42 54 85.5 86t101.5 32zM217 239q46 0 83 30t74 81
q-37 51 -74 81t-83 30q-47 0 -77 -31t-30 -80t30 -80t77 -31zM590 239q47 0 77 31t30 80t-30 80t-77 31q-45 0 -82 -29.5t-75 -81.5q38 -52 75 -81.5t82 -29.5z" />
    <glyph glyph-name="integral" unicode="&#x222b;" horiz-adv-x="436" 
d="M0 -203v50q52 -21 86.5 0t44.5 77l112 653q14 83 64.5 115.5t128.5 9.5v-49q-62 20 -97.5 0t-45.5 -77l-111 -653q-14 -83 -63.5 -115.5t-118.5 -10.5z" />
    <glyph glyph-name="approxequal" unicode="&#x2248;" horiz-adv-x="587" 
d="M282 409q-138 90 -173 -40l-46 22q10 34 29.5 58.5t48.5 38t71.5 5t92.5 -41.5q139 -91 172 40l46 -22q-10 -34 -28.5 -58.5t-47.5 -38.5t-71.5 -5t-93.5 42zM109 209l-46 22q10 34 29.5 58.5t48.5 38t71.5 5t92.5 -41.5q139 -91 172 40l46 -22q-10 -34 -28.5 -58.5
t-47.5 -38.5t-71.5 -5t-93.5 42q-138 90 -173 -40z" />
    <glyph glyph-name="notequal" unicode="&#x2260;" horiz-adv-x="537" 
d="M473 426h-149l-68 -152h217v-48h-239l-70 -154h-40l70 154h-131v48h153l68 152h-221v48h243l70 154h40l-70 -154h127v-48z" />
    <glyph glyph-name="lessequal" unicode="&#x2264;" horiz-adv-x="527" 
d="M464 593v-56l-338 -127l338 -127v-56l-400 158v50zM64 107v48h400v-48h-400z" />
    <glyph glyph-name="greaterequal" unicode="&#x2265;" horiz-adv-x="527" 
d="M63 593l400 -158v-50l-400 -158v56l338 127l-338 127v56zM63 107v48h400v-48h-400z" />
    <glyph glyph-name="lozenge" unicode="&#x25ca;" horiz-adv-x="538" 
d="M243 0l-186 350l186 350h52l186 -350l-186 -350h-52zM269 55l158 295l-158 295l-158 -295z" />
    <glyph glyph-name="i.locl" horiz-adv-x="204" 
d="M102 573q-20 0 -33.5 13.5t-13.5 33.5t13.5 33.5t33.5 13.5q19 0 32.5 -13.5t13.5 -33.5t-13.5 -33.5t-32.5 -13.5zM77 0v500h50v-500h-50z" />
    <glyph glyph-name="f_f_j.dlig" horiz-adv-x="780" 
d="M703 500v-557q0 -80 -43 -120.5t-123 -33.5v48q116 -12 116 106v508h-219v-451h-51v451h-219v-451h-51v451h-86v49h86v27q0 94 51.5 142.5t148.5 41.5v-48q-149 12 -149 -136v-27h219v37q0 184 200 184q44 0 97 -11v-46q-50 9 -97 9q-78 0 -113.5 -32t-35.5 -104v-37h269
z" />
    <glyph glyph-name="f_j.dlig" horiz-adv-x="510" 
d="M434 500v-557q0 -80 -43.5 -120.5t-123.5 -33.5v48q116 -12 116 106v508h-219v-451h-51v451h-86v49h86v27q0 184 200 184q45 0 97 -11v-46q-49 9 -97 9q-77 0 -113 -32t-36 -104v-27h270z" />
    <glyph glyph-name="uni0414.locl" horiz-adv-x="703" 
d="M613 50h64v-184h-54v134h-543v-134h-53v184h64l233 650h56zM147 50h410l-205 585z" />
    <glyph glyph-name="uni041B.aalt" horiz-adv-x="605" 
d="M274 700h56l261 -700h-57l-232 631l-231 -631h-58z" />
    <glyph glyph-name="uni0424.aalt" horiz-adv-x="851" 
d="M804 350q0 -156 -97.5 -254t-254.5 -106v-90h-53v90q-156 8 -254 106t-98 254t98 254t254 106v90h53v-90q157 -8 254.5 -106t97.5 -254zM100 350q0 -135 81 -219.5t218 -92.5v624q-137 -8 -218 -92.5t-81 -219.5zM452 38q137 8 218 93t81 219t-81 219t-218 93v-624z" />
    <glyph glyph-name="uni0414.salt" horiz-adv-x="690" 
d="M578 50h74v-50h-634v50h56q72 81 72 251v399h432v-650zM199 300q0 -162 -62 -250h388v600h-326v-350z" />
    <glyph glyph-name="uni0426.aalt" horiz-adv-x="690" 
d="M580 50h73v-50h-566v700h53v-650h387v650h53v-650z" />
    <glyph glyph-name="uni0429.aalt" horiz-adv-x="980" 
d="M870 50h73v-50h-856v700h53v-650h312v650h53v-650h312v650h53v-650z" />
    <glyph glyph-name="uni0414.locl.salt" horiz-adv-x="703" 
d="M613 50h64v-50h-650v50h64l233 650h56zM147 50h410l-205 585z" />
    <glyph glyph-name="uni0432.aalt" horiz-adv-x="573" 
d="M389 402q68 -18 104.5 -70.5t36.5 -131.5q0 -100 -60 -155.5t-167 -55.5t-166.5 63.5t-59.5 177.5v238q0 114 56.5 178.5t156.5 64.5q81 0 129 -46t48 -116q0 -84 -78 -147zM290 663q-76 0 -119.5 -52.5t-43.5 -142.5v-88l115 23q40 8 84 8q90 58 90 138q0 48 -34 81
t-92 33zM303 37q83 0 129.5 43t46.5 120q0 91 -63 133.5t-174 20.5l-115 -23v-101q0 -91 46.5 -142t129.5 -51z" />
    <glyph glyph-name="uni0433.aalt" horiz-adv-x="458" 
d="M375 130l43 -25q-20 -51 -69.5 -83.5t-121.5 -32.5q-79 0 -129 39.5t-50 101.5q0 51 30.5 82t74.5 44t88 23.5t74.5 32.5t30.5 59q0 43 -33 67.5t-79 24.5q-47 0 -83 -21.5t-52 -59.5l-42 24q21 48 67 76.5t110 28.5q71 0 117 -40t46 -100q0 -43 -22 -71.5t-55 -41.5
t-72 -24.5t-72 -20.5t-55 -30t-22 -53q0 -45 36.5 -69t91.5 -24t94 25.5t54 67.5z" />
    <glyph glyph-name="uni0434.aalt" horiz-adv-x="648" 
d="M521 500h50v-476q0 -109 -71 -172t-178 -63q-86 0 -147 32t-89 88l44 25q48 -97 192 -97q93 0 146 50.5t53 136.5v92q-31 -59 -87.5 -93t-127.5 -34q-108 0 -183.5 75.5t-75.5 185.5t75.5 185.5t183.5 75.5q71 0 127.5 -34t87.5 -93v116zM309 37q89 0 150.5 62t61.5 151
t-61.5 151t-150.5 62t-150.5 -62t-61.5 -151t61.5 -151t150.5 -62z" />
    <glyph glyph-name="uni0436.aalt" horiz-adv-x="663" 
d="M640 0h-62l-221 245v-245h-51v245l-221 -245h-62l237 260l-227 240h62l211 -226v426h51v-426l211 226h62l-226 -240z" />
    <glyph glyph-name="uni0438.aalt" 
d="M437 500h50v-500h-50v95q-54 -106 -179 -106q-89 0 -141.5 54.5t-52.5 145.5v311h51v-311q0 -70 38.5 -111t108.5 -41q77 0 126 51t49 148v264z" />
    <glyph glyph-name="uni0439.aalt" 
d="M400 631v-44h-253v44h253zM437 500h50v-500h-50v95q-54 -106 -179 -106q-89 0 -141.5 54.5t-52.5 145.5v311h51v-311q0 -70 38.5 -111t108.5 -41q77 0 126 51t49 148v264z" />
    <glyph glyph-name="uni043A.aalt" horiz-adv-x="483" 
d="M460 0h-68l-265 246v-246h-50v700h50v-427l253 227h70l-269 -240z" />
    <glyph glyph-name="uni043B.aalt" horiz-adv-x="511" 
d="M497 0h-53l-189 448l-188 -448h-54l212 500h61z" />
    <glyph glyph-name="uni043F.aalt" 
d="M306 511q89 0 141.5 -54.5t52.5 -145.5v-311h-51v311q0 70 -38.5 111t-108.5 41q-77 0 -126 -51t-49 -148v-264h-50v500h50v-95q54 106 179 106z" />
    <glyph glyph-name="uni0442.aalt" horiz-adv-x="857" 
d="M611 511q82 0 132 -51t50 -143v-317h-50v317q0 70 -36.5 108t-96.5 38q-67 0 -108.5 -46t-41.5 -138v-279h-50v317q0 70 -34.5 108t-93.5 38q-66 0 -110.5 -46.5t-44.5 -137.5v-279h-50v500h50v-86q52 97 161 97q55 0 96 -26.5t60 -75.5q26 51 70.5 76.5t96.5 25.5z" />
    <glyph glyph-name="uni0446.aalt" horiz-adv-x="594" 
d="M528 49h33v-183h-51v135q-34 4 -54 28t-20 61v3q-55 -104 -178 -104q-89 0 -141.5 54.5t-52.5 145.5v311h50v-311q0 -70 39 -111t109 -41q77 0 125.5 51t48.5 148v264h51v-410q0 -19 11 -30t30 -11z" />
    <glyph glyph-name="uni0448.aalt" horiz-adv-x="857" 
d="M730 500h50v-500h-50v86q-52 -97 -161 -97q-55 0 -96 26.5t-60 75.5q-26 -51 -70.5 -76.5t-96.5 -25.5q-82 0 -132 51t-50 143v317h50v-317q0 -70 36.5 -108t96.5 -38q67 0 108.5 46t41.5 138v279h50v-317q0 -70 34.5 -108t93.5 -38q66 0 110.5 46.5t44.5 137.5v279z" />
    <glyph glyph-name="uni0449.aalt" horiz-adv-x="888" 
d="M822 49h32v-183h-50v135q-33 4 -53 26.5t-21 58.5q-52 -97 -161 -97q-55 0 -96 26.5t-60 75.5q-26 -51 -70.5 -76.5t-96.5 -25.5q-82 0 -132 51t-50 143v317h50v-317q0 -70 36.5 -108t96.5 -38q67 0 108.5 46t41.5 138v279h50v-317q0 -70 34.5 -108t93.5 -38
q66 0 110.5 46.5t44.5 137.5v279h50v-410q0 -19 11.5 -30t30.5 -11z" />
    <glyph glyph-name="uni044C.aalt" horiz-adv-x="480" 
d="M255 332q89 0 140.5 -44.5t51.5 -122.5q0 -74 -54 -125t-138 -51q-90 0 -140.5 49.5t-50.5 126.5v335h50v-168h141zM255 37q62 0 101.5 38t39.5 90q0 55 -38 86.5t-103 31.5h-141v-118q0 -54 37.5 -91t103.5 -37z" />
    <glyph glyph-name="uni044A.aalt" horiz-adv-x="565" 
d="M338 332q89 0 140.5 -44.5t51.5 -122.5q0 -74 -54 -125t-138 -51q-90 0 -140.5 49.5t-50.5 126.5v286h-147v49h197v-168h141zM338 37q62 0 101.5 38t39.5 90q0 55 -38 86.5t-103 31.5h-141v-118q0 -54 37.5 -91t103.5 -37z" />
    <glyph glyph-name="uni044E.aalt" horiz-adv-x="803" 
d="M498 511q109 0 185.5 -75.5t76.5 -185.5t-76.5 -185.5t-185.5 -75.5q-103 0 -176.5 67.5t-82.5 169.5h-112v-226h-50v700h50v-426h112q9 102 82.5 169.5t176.5 67.5zM498 37q89 0 150 62t61 151t-61 151t-150 62t-150.5 -62t-61.5 -151t61.5 -151t150.5 -62z" />
    <glyph glyph-name="zero.sinf" horiz-adv-x="410" 
d="M205 -172q-80 0 -126 58t-46 154t46 154t126 58t126 -58t46 -154t-46 -154t-126 -58zM205 -126q58 0 91 43.5t33 122.5t-33 122.5t-91 43.5t-91 -43.5t-33 -122.5t33 -122.5t91 -43.5z" />
    <glyph glyph-name="one.sinf" horiz-adv-x="238" 
d="M136 240h38v-400h-48v346l-100 -33l-13 42z" />
    <glyph glyph-name="two.sinf" horiz-adv-x="343" 
d="M34 -160v39l175 163q44 39 44 90q0 32 -22 53t-61 21q-70 0 -95 -66l-40 22q16 42 51 66t84 24q59 0 95 -34.5t36 -85.5q0 -66 -59 -121l-137 -125h204v-46h-275z" />
    <glyph glyph-name="three.sinf" horiz-adv-x="345" 
d="M196 75q53 -7 82.5 -39.5t29.5 -80.5q0 -56 -38.5 -91.5t-103.5 -35.5q-101 0 -138 81l40 23q26 -58 98 -58q46 0 70 22.5t24 58.5t-25 59t-69 23h-4l-23 35l97 122h-196v46h252v-46z" />
    <glyph glyph-name="four.sinf" horiz-adv-x="356" 
d="M332 -35v-45h-54v-80h-48v80h-213v45l150 275h52l-150 -275h161v104h48v-104h54z" />
    <glyph glyph-name="five.sinf" horiz-adv-x="325" 
d="M165 85q62 0 100.5 -36t38.5 -94q0 -57 -38 -92t-102 -35q-99 0 -136 80l41 23q25 -57 95 -57q43 0 67.5 22t24.5 59q0 39 -24.5 61.5t-67.5 22.5h-118l15 201h227v-45h-186l-7 -110h70z" />
    <glyph glyph-name="six.sinf" horiz-adv-x="335" 
d="M167 100q62 0 103.5 -38.5t41.5 -96.5q0 -59 -41.5 -98t-103.5 -39q-61 0 -102.5 39t-41.5 98q0 37 19 69l133 206h57l-96 -143q15 3 31 3zM167 -126q43 0 70 25.5t27 65.5t-27 64.5t-70 24.5q-42 0 -69 -24.5t-27 -64.5t27 -65.5t69 -25.5z" />
    <glyph glyph-name="seven.sinf" horiz-adv-x="309" 
d="M17 240h266v-39l-155 -361h-51l153 354h-213v46z" />
    <glyph glyph-name="eight.sinf" horiz-adv-x="342" 
d="M242 50q70 -32 70 -106q0 -53 -39 -84.5t-102 -31.5t-102.5 31.5t-39.5 84.5q0 36 19 63.5t52 42.5q-58 31 -58 90q0 52 37 82t92 30q54 0 91 -30t37 -82q0 -59 -57 -90zM171 207q-37 0 -59 -18t-22 -49t22.5 -49.5t58.5 -18.5q35 0 57.5 18.5t22.5 49.5t-22 49t-58 18z
M171 -126q43 0 68 20.5t25 55.5t-26 55.5t-67 20.5q-43 0 -68.5 -20.5t-25.5 -55.5t25.5 -55.5t68.5 -20.5z" />
    <glyph glyph-name="nine.sinf" horiz-adv-x="335" 
d="M312 115q0 -37 -19 -69l-133 -206h-57l96 143q-15 -3 -31 -3q-62 0 -103.5 38.5t-41.5 96.5q0 59 41.5 98t103.5 39q61 0 102.5 -39t41.5 -98zM71 115q0 -40 27 -64.5t70 -24.5q42 0 69 24.5t27 64.5t-27 65.5t-69 25.5q-43 0 -70 -25.5t-27 -65.5z" />
    <glyph glyph-name="zero.tnum" horiz-adv-x="570" 
d="M285 -11q-124 0 -193 98t-69 263t69 263t193 98t193 -98t69 -263t-69 -263t-193 -98zM285 40q98 0 153 81.5t55 228.5t-55 228.5t-153 81.5t-153 -81.5t-55 -228.5t55 -228.5t153 -81.5z" />
    <glyph glyph-name="one.tnum" horiz-adv-x="570" 
d="M330 51h212v-51h-500v51h235v591l-162 -51l-14 46l184 63h45v-649z" />
    <glyph glyph-name="two.tnum" horiz-adv-x="570" 
d="M50 0v48l267 233q69 60 106 110.5t37 103.5q0 76 -47.5 120.5t-128.5 44.5q-62 0 -109.5 -32t-70.5 -88l-44 26q29 68 89.5 106.5t134.5 38.5q100 0 164.5 -58.5t64.5 -157.5q0 -66 -41.5 -126.5t-117.5 -124.5l-229 -193h405v-51h-480z" />
    <glyph glyph-name="three.tnum" horiz-adv-x="570" 
d="M310 410q98 -9 157.5 -63.5t59.5 -144.5q0 -99 -70 -156t-181 -57q-86 0 -151.5 39t-90.5 107l45 26q17 -55 70 -88t127 -33q92 0 145 43t53 119t-53 119t-145 43v1l-1 -1h-14l-23 35l193 251h-377v50h440v-50z" />
    <glyph glyph-name="four.tnum" horiz-adv-x="570" 
d="M543 197v-50h-90v-147h-53v147h-377v50l266 503h58l-266 -503h319v206h53v-206h90z" />
    <glyph glyph-name="five.tnum" horiz-adv-x="570" 
d="M285 415q105 0 174 -57t69 -156t-69 -156t-174 -57q-85 0 -150.5 39.5t-89.5 107.5l44 26q18 -56 70 -89t126 -33q86 0 138 43.5t52 118.5t-52 118.5t-138 43.5h-205l23 336h399v-50h-350l-16 -235h149z" />
    <glyph glyph-name="six.tnum" horiz-adv-x="570" 
d="M278 450q114 0 183 -64t69 -167t-69 -166.5t-183 -63.5q-113 0 -182 63.5t-69 166.5q0 85 48 144l243 337h63l-188 -261q41 11 85 11zM278 40q94 0 146.5 49.5t52.5 129.5q0 81 -52.5 130.5t-146.5 49.5q-93 0 -145.5 -49.5t-52.5 -130.5q0 -80 52.5 -129.5t145.5 -49.5z
" />
    <glyph glyph-name="seven.tnum" horiz-adv-x="570" 
d="M40 700h483v-50l-295 -650h-55l295 650h-428v50z" />
    <glyph glyph-name="eight.tnum" horiz-adv-x="570" 
d="M404 362q60 -23 94 -69t34 -106q0 -93 -67 -145.5t-180 -52.5t-180 52.5t-67 145.5q0 60 34 106t94 69q-48 23 -76 64.5t-28 95.5q0 89 62.5 139t160.5 50t160.5 -50t62.5 -139q0 -54 -28 -95.5t-76 -64.5zM115 522q0 -63 46 -100t124 -37t124 37t46 100q0 66 -45.5 102
t-124.5 36t-124.5 -36t-45.5 -102zM285 40q93 0 143 39t50 108q0 68 -50 107t-143 39t-143 -39t-50 -107q0 -69 50 -108t143 -39z" />
    <glyph glyph-name="nine.tnum" horiz-adv-x="570" 
d="M543 481q0 -85 -48 -144l-243 -337h-63l188 261q-41 -11 -85 -11q-114 0 -183 64t-69 167t69 166.5t183 63.5q113 0 182 -63.5t69 -166.5zM93 481q0 -81 52.5 -130.5t146.5 -49.5q93 0 145.5 49.5t52.5 130.5q0 80 -52.5 129.5t-145.5 49.5q-94 0 -146.5 -49.5
t-52.5 -129.5z" />
    <glyph glyph-name="zero.dnom" horiz-adv-x="410" 
d="M205 -12q-80 0 -126 58t-46 154t46 154t126 58t126 -58t46 -154t-46 -154t-126 -58zM205 34q58 0 91 43.5t33 122.5t-33 122.5t-91 43.5t-91 -43.5t-33 -122.5t33 -122.5t91 -43.5z" />
    <glyph glyph-name="one.dnom" horiz-adv-x="246" 
d="M136 400h38v-400h-48v346l-100 -33l-13 42z" />
    <glyph glyph-name="two.dnom" horiz-adv-x="342" 
d="M34 0v39l175 163q44 39 44 90q0 32 -22 53t-61 21q-70 0 -95 -66l-40 22q16 42 51 66t84 24q59 0 95 -34.5t36 -85.5q0 -66 -59 -121l-137 -125h204v-46h-275z" />
    <glyph glyph-name="three.dnom" horiz-adv-x="349" 
d="M196 235q53 -7 82.5 -39.5t29.5 -80.5q0 -56 -38.5 -91.5t-103.5 -35.5q-101 0 -138 81l40 23q26 -58 98 -58q46 0 70 22.5t24 58.5t-25 59t-69 23h-4l-23 35l97 122h-196v46h252v-46z" />
    <glyph glyph-name="four.dnom" horiz-adv-x="356" 
d="M332 125v-45h-54v-80h-48v80h-213v45l150 275h52l-150 -275h161v104h48v-104h54z" />
    <glyph glyph-name="five.dnom" horiz-adv-x="339" 
d="M162 245q62 0 100.5 -36t38.5 -94q0 -57 -38 -92t-102 -35q-99 0 -136 80l41 23q25 -57 95 -57q43 0 67.5 22t24.5 59q0 39 -24.5 61.5t-67.5 22.5h-118l15 201h227v-45h-186l-7 -110h70z" />
    <glyph glyph-name="six.dnom" horiz-adv-x="335" 
d="M167 260q62 0 103.5 -38.5t41.5 -96.5q0 -59 -41.5 -98t-103.5 -39q-61 0 -102.5 39t-41.5 98q0 37 19 69l133 206h57l-96 -143q15 3 31 3zM167 34q43 0 70 25.5t27 65.5t-27 64.5t-70 24.5q-42 0 -69 -24.5t-27 -64.5t27 -65.5t69 -25.5z" />
    <glyph glyph-name="seven.dnom" horiz-adv-x="309" 
d="M17 400h266v-39l-155 -361h-51l153 354h-213v46z" />
    <glyph glyph-name="eight.dnom" horiz-adv-x="342" 
d="M242 210q70 -32 70 -106q0 -53 -39 -84.5t-102 -31.5t-102.5 31.5t-39.5 84.5q0 36 19 63.5t52 42.5q-58 31 -58 90q0 52 37 82t92 30q54 0 91 -30t37 -82q0 -59 -57 -90zM171 367q-37 0 -59 -18t-22 -49t22.5 -49.5t58.5 -18.5q35 0 57.5 18.5t22.5 49.5t-22 49t-58 18z
M171 34q43 0 68 20.5t25 55.5t-26 55.5t-67 20.5q-43 0 -68.5 -20.5t-25.5 -55.5t25.5 -55.5t68.5 -20.5z" />
    <glyph glyph-name="nine.dnom" horiz-adv-x="335" 
d="M312 275q0 -37 -19 -69l-133 -206h-57l96 143q-15 -3 -31 -3q-62 0 -103.5 38.5t-41.5 96.5q0 59 41.5 98t103.5 39q61 0 102.5 -39t41.5 -98zM71 275q0 -40 27 -64.5t70 -24.5q42 0 69 24.5t27 64.5t-27 65.5t-69 25.5q-43 0 -70 -25.5t-27 -65.5z" />
    <glyph glyph-name="zero.numr" horiz-adv-x="410" 
d="M205 288q-80 0 -126 58t-46 154t46 154t126 58t126 -58t46 -154t-46 -154t-126 -58zM205 334q58 0 91 43.5t33 122.5t-33 122.5t-91 43.5t-91 -43.5t-33 -122.5t33 -122.5t91 -43.5z" />
    <glyph glyph-name="one.numr" horiz-adv-x="246" 
d="M136 700h38v-400h-48v346l-100 -33l-13 42z" />
    <glyph glyph-name="two.numr" horiz-adv-x="342" 
d="M34 300v39l175 163q44 39 44 90q0 32 -22 53t-61 21q-70 0 -95 -66l-40 22q16 42 51 66t84 24q59 0 95 -34.5t36 -85.5q0 -66 -59 -121l-137 -125h204v-46h-275z" />
    <glyph glyph-name="three.numr" horiz-adv-x="349" 
d="M196 535q53 -7 82.5 -39.5t29.5 -80.5q0 -56 -38.5 -91.5t-103.5 -35.5q-101 0 -138 81l40 23q26 -58 98 -58q46 0 70 22.5t24 58.5t-25 59t-69 23h-4l-23 35l97 122h-196v46h252v-46z" />
    <glyph glyph-name="four.numr" horiz-adv-x="356" 
d="M332 425v-45h-54v-80h-48v80h-213v45l150 275h52l-150 -275h161v104h48v-104h54z" />
    <glyph glyph-name="five.numr" horiz-adv-x="339" 
d="M162 545q62 0 100.5 -36t38.5 -94q0 -57 -38 -92t-102 -35q-99 0 -136 80l41 23q25 -57 95 -57q43 0 67.5 22t24.5 59q0 39 -24.5 61.5t-67.5 22.5h-118l15 201h227v-45h-186l-7 -110h70z" />
    <glyph glyph-name="six.numr" horiz-adv-x="335" 
d="M167 560q62 0 103.5 -38.5t41.5 -96.5q0 -59 -41.5 -98t-103.5 -39q-61 0 -102.5 39t-41.5 98q0 37 19 69l133 206h57l-96 -143q15 3 31 3zM167 334q43 0 70 25.5t27 65.5t-27 64.5t-70 24.5q-42 0 -69 -24.5t-27 -64.5t27 -65.5t69 -25.5z" />
    <glyph glyph-name="seven.numr" horiz-adv-x="309" 
d="M17 700h266v-39l-155 -361h-51l153 354h-213v46z" />
    <glyph glyph-name="eight.numr" horiz-adv-x="342" 
d="M242 510q70 -32 70 -106q0 -53 -39 -84.5t-102 -31.5t-102.5 31.5t-39.5 84.5q0 36 19 63.5t52 42.5q-58 31 -58 90q0 52 37 82t92 30q54 0 91 -30t37 -82q0 -59 -57 -90zM171 667q-37 0 -59 -18t-22 -49t22.5 -49.5t58.5 -18.5q35 0 57.5 18.5t22.5 49.5t-22 49t-58 18z
M171 334q43 0 68 20.5t25 55.5t-26 55.5t-67 20.5q-43 0 -68.5 -20.5t-25.5 -55.5t25.5 -55.5t68.5 -20.5z" />
    <glyph glyph-name="nine.numr" horiz-adv-x="335" 
d="M312 575q0 -37 -19 -69l-133 -206h-57l96 143q-15 -3 -31 -3q-62 0 -103.5 38.5t-41.5 96.5q0 59 41.5 98t103.5 39q61 0 102.5 -39t41.5 -98zM71 575q0 -40 27 -64.5t70 -24.5q42 0 69 24.5t27 64.5t-27 65.5t-69 25.5q-43 0 -70 -25.5t-27 -65.5z" />
    <glyph glyph-name="zero.superior" horiz-adv-x="410" 
d="M205 448q-80 0 -126 58t-46 154t46 154t126 58t126 -58t46 -154t-46 -154t-126 -58zM205 494q58 0 91 43.5t33 122.5t-33 122.5t-91 43.5t-91 -43.5t-33 -122.5t33 -122.5t91 -43.5z" />
    <glyph glyph-name="one.superior" horiz-adv-x="246" 
d="M136 860h38v-400h-48v346l-100 -33l-13 42z" />
    <glyph glyph-name="two.superior" horiz-adv-x="342" 
d="M34 460v39l175 163q44 39 44 90q0 32 -22 53t-61 21q-70 0 -95 -66l-40 22q16 42 51 66t84 24q59 0 95 -34.5t36 -85.5q0 -66 -59 -121l-137 -125h204v-46h-275z" />
    <glyph glyph-name="three.superior" horiz-adv-x="349" 
d="M196 695q53 -7 82.5 -39.5t29.5 -80.5q0 -56 -38.5 -91.5t-103.5 -35.5q-101 0 -138 81l40 23q26 -58 98 -58q46 0 70 22.5t24 58.5t-25 59t-69 23h-4l-23 35l97 122h-196v46h252v-46z" />
    <glyph glyph-name="four.superior" horiz-adv-x="356" 
d="M332 585v-45h-54v-80h-48v80h-213v45l150 275h52l-150 -275h161v104h48v-104h54z" />
    <glyph glyph-name="five.superior" horiz-adv-x="339" 
d="M162 705q62 0 100.5 -36t38.5 -94q0 -57 -38 -92t-102 -35q-99 0 -136 80l41 23q25 -57 95 -57q43 0 67.5 22t24.5 59q0 39 -24.5 61.5t-67.5 22.5h-118l15 201h227v-45h-186l-7 -110h70z" />
    <glyph glyph-name="six.superior" horiz-adv-x="335" 
d="M167 720q62 0 103.5 -38.5t41.5 -96.5q0 -59 -41.5 -98t-103.5 -39q-61 0 -102.5 39t-41.5 98q0 37 19 69l133 206h57l-96 -143q15 3 31 3zM167 494q43 0 70 25.5t27 65.5t-27 64.5t-70 24.5q-42 0 -69 -24.5t-27 -64.5t27 -65.5t69 -25.5z" />
    <glyph glyph-name="seven.superior" horiz-adv-x="309" 
d="M17 860h266v-39l-155 -361h-51l153 354h-213v46z" />
    <glyph glyph-name="eight.superior" horiz-adv-x="342" 
d="M242 670q70 -32 70 -106q0 -53 -39 -84.5t-102 -31.5t-102.5 31.5t-39.5 84.5q0 36 19 63.5t52 42.5q-58 31 -58 90q0 52 37 82t92 30q54 0 91 -30t37 -82q0 -59 -57 -90zM171 827q-37 0 -59 -18t-22 -49t22.5 -49.5t58.5 -18.5q35 0 57.5 18.5t22.5 49.5t-22 49t-58 18z
M171 494q43 0 68 20.5t25 55.5t-26 55.5t-67 20.5q-43 0 -68.5 -20.5t-25.5 -55.5t25.5 -55.5t68.5 -20.5z" />
    <glyph glyph-name="nine.superior" horiz-adv-x="335" 
d="M312 735q0 -37 -19 -69l-133 -206h-57l96 143q-15 -3 -31 -3q-62 0 -103.5 38.5t-41.5 96.5q0 59 41.5 98t103.5 39q61 0 102.5 -39t41.5 -98zM71 735q0 -40 27 -64.5t70 -24.5q42 0 69 24.5t27 64.5t-27 65.5t-69 25.5q-43 0 -70 -25.5t-27 -65.5z" />
    <glyph glyph-name="cent.aalt" horiz-adv-x="570" 
d="M492 241l42 -25q-30 -58 -89.5 -92.5t-132.5 -34.5q-40 0 -74 10l-32 -99h-40l36 111q-70 30 -111.5 94t-41.5 145q0 111 75 186t188 75q25 0 53 -5l31 94h40l-34 -104q91 -32 128 -113l-41 -24q-29 64 -102 91l-133 -405q29 -8 58 -8q60 0 107.5 28t72.5 76zM100 350
q0 -63 32 -114.5t86 -77.5l132 402q-18 3 -38 3q-90 0 -151 -61.5t-61 -151.5z" />
    <glyph glyph-name="dollar.aalt" horiz-adv-x="570" 
d="M526 177q0 -80 -56.5 -130.5t-148.5 -56.5v-90h-47v90q-86 4 -145 43.5t-85 108.5l46 26q33 -118 184 -127v297q-47 15 -76.5 28t-59.5 35t-44.5 53.5t-14.5 74.5q0 77 54.5 126.5t140.5 54.5v90h47v-90q142 -13 189 -142l-45 -25q-34 104 -144 116v-283q48 -15 80 -29
t63 -36.5t46.5 -56t15.5 -77.5zM132 529q0 -55 35 -84.5t107 -53.5v268q-65 -4 -103.5 -40t-38.5 -90zM321 41q72 5 112 42t40 94q0 59 -37.5 90t-114.5 56v-282z" />
    <glyph glyph-name="Euro.aalt" horiz-adv-x="570" 
d="M495 163l43 -24q-23 -72 -75.5 -111t-123.5 -39q-103 0 -167 74.5t-79 204.5h-71v45h67q-1 12 -1 37q0 29 1 43h-67v44h71q17 128 80.5 201t165.5 73q70 0 121.5 -37t74.5 -106l-44 -25q-18 57 -58.5 87t-93.5 30q-77 0 -127.5 -58.5t-64.5 -164.5h254v-44h-259
q-1 -14 -1 -43q0 -25 1 -37h259v-45h-255q14 -109 64 -168.5t129 -59.5q54 0 95.5 31.5t60.5 91.5z" />
    <glyph glyph-name="florin.aalt" horiz-adv-x="570" 
d="M537 653q-59 21 -96.5 0t-51.5 -77l-49 -201h154v-49h-165l-98 -403q-20 -83 -71 -115.5t-127 -10.5v50q59 -21 96.5 0t50.5 77l98 402h-152v49h164l49 202q20 83 71 115.5t127 10.5v-50z" />
    <glyph glyph-name="uni20BD.aalt" horiz-adv-x="570" 
d="M333 287h-180v-104h260v-44h-260v-139h-53v139h-90v44h90v104h-90v50h90v363h233q85 0 146 -61t61 -146t-61 -145.5t-146 -60.5zM153 650v-313h180q64 0 109 45.5t45 110.5t-45 111t-109 46h-180z" />
    <glyph glyph-name="sterling.aalt" horiz-adv-x="570" 
d="M186 51h377v-51h-530v51h100v242h-80v47h80v170q0 95 58.5 148t141.5 53q69 0 117.5 -35t72.5 -99l-44 -25q-35 108 -146 108q-64 0 -105.5 -39t-41.5 -111v-170h241v-47h-241v-242z" />
    <glyph glyph-name="yen.aalt" horiz-adv-x="570" 
d="M557 700l-234 -356h175v-45h-186v-77h186v-44h-186v-178h-54v178h-184v44h184v77h-184v45h174l-234 356h58l213 -324l213 324h59z" />
    <glyph glyph-name="glyph555" horiz-adv-x="293" 
d="M20 587v44h253v-44h-253z" />
    </font>
</defs>
</svg>
