<?xml version="1.0" standalone="no"?>
<!DOCTYPE svg PUBLIC "-//W3C//DTD SVG 1.1//EN" "http://www.w3.org/Graphics/SVG/1.1/DTD/svg11.dtd" >
<svg xmlns="http://www.w3.org/2000/svg" xmlns:xlink="http://www.w3.org/1999/xlink" version="1.1">
<metadata>
Created by FontForge 20170731 at Thu Jan  1 03:00:00 1970
 By Aleksey,,,
</metadata>
<defs>
<font id="bootstrap-icons" horiz-adv-x="300" >
  <font-face 
    font-family="bootstrap-icons"
    font-weight="400"
    font-stretch="normal"
    units-per-em="300"
    panose-1="2 0 5 3 0 0 0 0 0 0"
    ascent="300"
    descent="0"
    x-height="216"
    bbox="-0.4 -28 328 300.4"
    underline-thickness="0"
    underline-position="3"
    unicode-range="U+002D-F65A"
  />
<missing-glyph horiz-adv-x="0" 
 />
    <glyph glyph-name="alarm-fill" unicode="alarm&#x2d;fill" 
d="M113 291q0 4 2.5 6.5t6.5 2.5h56q4 0 7 -2.5t3 -6.5t-3 -7t-7 -3h-9v-20q39 -5 68.5 -31.5t39.5 -65t-3 -76t-44 -61.5l11 -11q3 -3 3 -7t-2.5 -6.5t-6.5 -2.5t-7 3l-14 14q-30 -17 -64 -17t-64 17l-14 -14q-3 -3 -7 -3t-6.5 2.5t-2.5 6.5t3 7l11 11q-31 24 -44 61.5
t-3 76t39.5 65t68.5 31.5v20h-9q-4 0 -7 3t-3 7h1zM159 197q0 4 -2.5 6.5t-6.5 2.5t-6.5 -2.5t-2.5 -6.5v-63l-27 -45q-2 -3 -1 -7t4 -6t7 -1t6 5l28 46q1 3 1 5v66zM16 199q-10 9 -14 21.5t-1 25t12.5 22t22.5 12.5t25.5 -1t20.5 -14q-21 -11 -38 -28t-28 -38zM218 265
q8 10 20.5 14t25.5 1t22.5 -12.5t12.5 -22t-1 -25t-14 -21.5q-11 21 -28 38t-38 28z" />
    <glyph glyph-name="alarm" unicode="alarm" 
d="M159 197q0 4 -2.5 6.5t-6.5 2.5t-6.5 -2.5t-2.5 -6.5v-63l-27 -45q-2 -3 -1 -7t4 -6t7 -1t6 5l28 46q1 3 1 5v66zM122 300q-4 0 -6.5 -2.5t-2.5 -6.5t2.5 -7t6.5 -3h9v-20q-39 -5 -68.5 -31.5t-39.5 -65t3 -76t44 -61.5l-11 -11q-3 -3 -3 -7t2.5 -6.5t6.5 -2.5t7 3l14 14
q30 -17 64 -17t64 17l14 -14q3 -3 7 -3t6.5 2.5t2.5 6.5t-3 7l-11 11q31 24 44 61.5t3 76t-39.5 65t-68.5 31.5v20h9q4 0 7 3t3 7t-3 6.5t-7 2.5h-56zM141 243q9 1 18 0q29 -2 53.5 -18.5t38 -42t12 -55.5t-16.5 -54.5t-40.5 -39t-55.5 -14.5t-55.5 14.5t-40.5 39
t-16.5 54.5t12 55.5t38 42t53.5 18.5zM0 234q0 -10 4.5 -19t11.5 -16q11 21 28 38t38 28q-9 11 -23.5 14.5t-28 -1.5t-22 -17t-8.5 -27zM253 281q-10 0 -19.5 -4t-15.5 -12q21 -11 38 -28t28 -38q11 10 14.5 24t-1.5 28t-17 22t-27 8z" />
    <glyph glyph-name="align-bottom" unicode="align&#x2d;bottom" 
d="M131 281h38q8 0 13.5 -5.5t5.5 -12.5v-188q0 -8 -5.5 -13.5t-13.5 -5.5h-38q-8 0 -13 5.5t-5 13.5v188q-1 7 4.5 12.5t13.5 5.5zM28 38q-4 0 -6.5 -3t-2.5 -7t2.5 -6.5t6.5 -2.5v19zM272 19q4 0 6.5 2.5t2.5 6.5t-2.5 7t-6.5 3v-19zM28 19h244v19h-244v-19z" />
    <glyph glyph-name="align-center" unicode="align&#x2d;center" 
d="M150 281q4 0 6.5 -2.5t2.5 -6.5v-84h-18v84q0 4 2.5 6.5t6.5 2.5zM150 19q-4 0 -6.5 2.5t-2.5 6.5v85h18v-85q0 -4 -2.5 -6.5t-6.5 -2.5zM38 169q0 8 5 13.5t13 5.5h188q8 0 13.5 -5.5t5.5 -13.5v-38q0 -8 -5.5 -13t-13.5 -5h-188q-8 -1 -13 4.5t-5 13.5v38z" />
    <glyph glyph-name="align-end" unicode="align&#x2d;end" 
d="M272 281q-4 0 -7 -2.5t-3 -6.5v-244q1 -4 3.5 -6.5t6.5 -2.5t6.5 2.5t2.5 6.5v244q0 4 -2.5 6.5t-6.5 2.5zM244 169q0 8 -5.5 13.5t-13.5 5.5h-187q-8 0 -13.5 -5.5t-5.5 -13.5v-38q0 -8 5.5 -13t13.5 -5h187q8 -1 13.5 4.5t5.5 13.5v38z" />
    <glyph glyph-name="align-middle" unicode="align&#x2d;middle" 
d="M113 56q-1 -8 4.5 -13t13.5 -5h38q8 0 13.5 5t5.5 13v188q0 8 -5.5 13.5t-13.5 5.5h-38q-8 0 -13 -5.5t-5 -13.5v-188zM19 150q0 -4 2.5 -6.5t6.5 -2.5h85v18h-85q-4 0 -6.5 -2.5t-2.5 -6.5zM281 150q0 -4 -2.5 -6.5t-6.5 -2.5h-84v18h84q4 0 6.5 -2.5t2.5 -6.5z" />
    <glyph glyph-name="align-start" unicode="align&#x2d;start" 
d="M28 281q4 0 6.5 -2.5t3.5 -6.5v-244q0 -4 -3 -6.5t-7 -2.5t-6.5 2.5t-2.5 6.5v244q0 4 2.5 6.5t6.5 2.5zM56 169q0 8 5.5 13.5t13.5 5.5h188q7 0 12.5 -5.5t5.5 -13.5v-38q0 -8 -5.5 -13t-12.5 -5h-188q-8 -1 -13.5 4.5t-5.5 13.5v38z" />
    <glyph glyph-name="align-top" unicode="align&#x2d;top" 
d="M131 19h38q8 0 13.5 5.5t5.5 13.5v187q0 8 -5.5 13.5t-13.5 5.5h-38q-8 0 -13.5 -5.5t-4.5 -13.5v-187q0 -8 5 -13.5t13 -5.5zM28 263q-4 0 -6.5 2.5t-2.5 6.5t2.5 6.5t6.5 2.5v-18zM272 281q4 0 6.5 -2.5t2.5 -6.5t-2.5 -7t-6.5 -3v19zM28 281h244v-18h-244v18z" />
    <glyph glyph-name="alt" unicode="alt" 
d="M19 47q0 -4 2.5 -6.5t6.5 -2.5h71q6 -1 9 4l98 202h66q4 0 6.5 2.5t2.5 6.5t-2.5 7t-6.5 3h-71q-6 0 -9 -5l-98 -202h-66q-4 0 -6.5 -2.5t-2.5 -6.5zM206 47q0 -4 3 -6.5t7 -2.5h56q4 0 6.5 2.5t2.5 6.5t-2.5 6.5t-6.5 2.5h-56q-4 0 -7 -2.5t-3 -6.5z" />
    <glyph glyph-name="app-indicator" unicode="app&#x2d;indicator" 
d="M103 263q-18 -1 -33 -9.5t-23.5 -23.5t-9.5 -33v-94q1 -18 9.5 -33t23.5 -24t33 -9h94q18 1 33 9.5t23.5 23.5t8.5 33v47q1 4 3.5 6.5t6.5 2.5t6.5 -2.5t2.5 -6.5v-47q0 -23 -11 -42.5t-30.5 -30.5t-42.5 -11h-94q-23 0 -42.5 11t-30.5 30.5t-11 42.5v94q0 23 11 42.5
t30.5 30.5t42.5 11h47q4 0 6.5 -2.5t2.5 -6.5t-2.5 -7t-6.5 -3h-47v1zM300 244q0 -24 -16.5 -40t-40 -16.5t-39.5 16t-16.5 40t16 40t40 16.5t40 -16.5t16.5 -39.5z" />
    <glyph glyph-name="app" unicode="app" 
d="M206 263q24 0 40 -16.5t16 -40.5v-112q1 -24 -15.5 -40t-40.5 -16h-112q-24 0 -40.5 16t-16.5 40v112q0 24 16.5 40.5t40.5 15.5h112v1zM94 281q-21 0 -38 -10t-27 -27t-10 -38v-112q0 -21 10 -38t27 -27t38 -10h112q21 0 38 10t27 27t10 38v112q0 21 -10 38t-27 27
t-38 10h-112z" />
    <glyph glyph-name="archive-fill" unicode="archive&#x2d;fill" 
d="M237 19q19 0 31.5 13.5t12.5 33.5v140h-262v-140q0 -20 12.5 -33.5t31.5 -13.5h174zM103 169h94q4 0 6.5 -3t2.5 -7t-2.5 -6.5t-6.5 -2.5h-94q-4 0 -6.5 2.5t-2.5 6.5t2.5 7t6.5 3zM15 281q-6 0 -10.5 -4.5t-4.5 -10.5v-22q0 -6 4.5 -10.5t10.5 -4.5h270q6 0 10.5 4.5
t4.5 10.5v22q0 6 -4.5 10.5t-10.5 4.5h-270z" />
    <glyph glyph-name="archive" unicode="archive" 
d="M0 263q0 7 5.5 12.5t13.5 5.5h262q8 0 13.5 -5.5t5.5 -12.5v-38q0 -8 -5.5 -13.5t-13.5 -5.5v-140q0 -20 -13.5 -33.5t-33.5 -13.5h-168q-20 0 -33.5 13.5t-13.5 33.5v140q-8 0 -13.5 5.5t-5.5 13.5v38zM38 206v-140q0 -12 8 -20.5t20 -8.5h168q12 0 20.5 8.5t7.5 20.5
v140h-224zM281 263h-262v-38h262v38zM94 159q0 4 2.5 7t6.5 3h94q4 0 6.5 -3t2.5 -7t-2.5 -6.5t-6.5 -2.5h-94q-4 0 -6.5 2.5t-2.5 6.5z" />
    <glyph glyph-name="arrow-90deg-down" unicode="arrow&#x2d;&#x39;&#x30;deg&#x2d;down" 
d="M91 21q-3 -2 -7 -2t-6 2l-75 75q-3 3 -3 7t2.5 7t6.5 3t7 -3l59 -59v183q0 20 13.5 33.5t33.5 13.5h150q4 0 6.5 -2.5t2.5 -6.5t-2.5 -7t-6.5 -3h-150q-12 1 -20 -7.5t-8 -20.5v-183l59 59q2 3 6 3t7 -3t3 -7t-3 -7z" />
    <glyph glyph-name="arrow-90deg-left" unicode="arrow&#x2d;&#x39;&#x30;deg&#x2d;left" 
d="M21 209q-2 3 -2 7t2 6l75 75q3 3 7 3t7 -2.5t3 -6.5t-3 -7l-59 -59h183q20 0 33.5 -13.5t13.5 -33.5v-150q0 -4 -2.5 -6.5t-6.5 -2.5t-7 2.5t-3 6.5v150q1 12 -7.5 20t-20.5 8h-183l59 -59q3 -2 3 -6t-3 -7t-7 -3t-7 3z" />
    <glyph glyph-name="arrow-90deg-right" unicode="arrow&#x2d;&#x39;&#x30;deg&#x2d;right" 
d="M279 209q2 3 2 7t-2 6l-75 75q-3 3 -7 3t-7 -2.5t-3 -6.5t3 -7l59 -59h-183q-20 0 -33.5 -13.5t-13.5 -33.5v-150q0 -4 2.5 -6.5t6.5 -2.5t7 2.5t3 6.5v150q0 12 8 20t20 8h183l-59 -59q-3 -2 -3 -6t3 -7t7 -3t7 3z" />
    <glyph glyph-name="arrow-90deg-up" unicode="arrow&#x2d;&#x39;&#x30;deg&#x2d;up" 
d="M91 279q-3 2 -7 2t-6 -2l-75 -75q-3 -3 -3 -7t2.5 -7t6.5 -3t7 3l59 59v-183q0 -20 13.5 -33.5t33.5 -13.5h150q4 0 6.5 2.5t2.5 6.5t-2.5 7t-6.5 3h-150q-12 -1 -20 7.5t-8 20.5v183l59 -59q4 -4 9 -2.5t6.5 7t-2.5 9.5z" />
    <glyph glyph-name="arrow-bar-down" unicode="arrow&#x2d;bar&#x2d;down" 
d="M19 234q0 4 2.5 7t6.5 3h244q4 0 6.5 -3t2.5 -7t-2.5 -6.5t-6.5 -2.5h-244q-4 0 -6.5 2.5t-2.5 6.5zM150 188q4 0 6.5 -3t2.5 -7v-108l41 40q2 3 6 3t7 -3t3 -7t-3 -7l-56 -56q-3 -3 -7 -3t-7 3l-56 56q-3 3 -3 7t3 7t7 3t6 -3l41 -40v108q0 4 2.5 7t6.5 3z" />
    <glyph glyph-name="arrow-bar-left" unicode="arrow&#x2d;bar&#x2d;left" 
d="M234 19q-4 0 -6.5 2.5t-2.5 6.5v244q0 4 2.5 6.5t6.5 2.5t7 -2.5t3 -6.5v-244q0 -4 -3 -6.5t-7 -2.5zM188 150q0 -4 -3 -6.5t-7 -2.5h-108l40 -41q3 -2 3 -6t-3 -7t-7 -3t-7 3l-56 56q-3 3 -3 7t3 7l56 56q3 3 7 3t7 -3t3 -7t-3 -6l-40 -41h108q4 0 7 -2.5t3 -6.5z" />
    <glyph glyph-name="arrow-bar-right" unicode="arrow&#x2d;bar&#x2d;right" 
d="M113 150q-1 -4 2 -6.5t7 -2.5h108l-40 -41q-3 -2 -3 -6t3 -7t7 -3t7 3l56 56q3 3 3 7t-3 7l-56 56q-3 3 -7 3t-7 -3t-3 -7t3 -6l40 -41h-108q-4 0 -7 -2.5t-3 -6.5h1zM66 19q-4 0 -7 2.5t-3 6.5v244q0 4 3 6.5t7 2.5t6.5 -2.5t2.5 -6.5v-244q0 -4 -2.5 -6.5t-6.5 -2.5z
" />
    <glyph glyph-name="arrow-bar-up" unicode="arrow&#x2d;bar&#x2d;up" 
d="M150 113q4 -1 6.5 2t2.5 7v108l41 -40q2 -3 6 -3t7 3t3 7t-3 7l-56 56q-3 3 -7 3t-7 -3l-56 -56q-3 -3 -3 -7t3 -7t7 -3t6 3l41 40v-108q0 -4 2.5 -6.5t6.5 -3.5v1zM19 66q0 4 2.5 6.5t6.5 2.5h244q4 0 6.5 -2.5t2.5 -6.5t-2.5 -7t-6.5 -3h-244q-4 0 -6.5 3t-2.5 7z" />
    <glyph glyph-name="arrow-clockwise" unicode="arrow&#x2d;clockwise" 
d="M150 244q-31 0 -56 -19t-34 -49t2 -59t37.5 -46t57.5 -14.5t54.5 23t30 51t-6.5 58.5q-1 4 0.5 7.5t4.5 5t7 0t5 -4.5q16 -34 8 -70.5t-36 -61t-65.5 -27.5t-69 17.5t-44.5 55.5t-2.5 71t40.5 58t67 23v-19zM150 216v74q0 3 2.5 4t5.5 0l44 -37q2 -2 2 -4t-2 -3l-44 -37
q-3 -2 -5.5 -1t-2.5 4z" />
    <glyph glyph-name="arrow-counterclockwise" unicode="arrow&#x2d;counterclockwise" 
d="M150 244q31 0 56 -19t34 -49t-2 -59t-37.5 -46t-57.5 -14.5t-54.5 23t-30 51t6.5 58.5q1 4 -0.5 7.5t-4.5 5t-7 0t-5 -4.5q-16 -34 -8 -70.5t36 -61t65.5 -27.5t69 17.5t44.5 55.5t2.5 71t-40.5 58t-67 23v-19zM150 216v74q0 3 -2.5 4t-5.5 0l-44 -37q-2 -2 -2 -4t2 -3
l44 -37q3 -2 5.5 -1t2.5 4z" />
    <glyph glyph-name="arrow-down-circle-fill" unicode="arrow&#x2d;down&#x2d;circle&#x2d;fill" 
d="M300 150q0 -41 -20 -75.5t-54.5 -54.5t-75.5 -20t-75.5 20t-54.5 54.5t-20 75.5t20 75.5t54.5 54.5t75.5 20t75.5 -20t54.5 -54.5t20 -75.5zM159 216q0 4 -2.5 6.5t-6.5 2.5t-6.5 -2.5t-2.5 -6.5v-109l-41 40q-2 3 -6 3t-7 -2.5t-3 -6.5t3 -7l56 -56q3 -3 7 -3t7 3l56 56
q3 3 3 7t-3 6.5t-7 2.5t-6 -3l-41 -40v109z" />
    <glyph glyph-name="arrow-down-circle" unicode="arrow&#x2d;down&#x2d;circle" 
d="M19 150q0 -36 17.5 -66t47.5 -47.5t66 -17.5t66 17.5t47.5 47.5t17.5 66t-17.5 66t-47.5 47.5t-66 17.5t-66 -17.5t-47.5 -47.5t-17.5 -66zM300 150q0 -41 -20 -75.5t-54.5 -54.5t-75.5 -20t-75.5 20t-54.5 54.5t-20 75.5t20 75.5t54.5 54.5t75.5 20t75.5 -20t54.5 -54.5
t20 -75.5zM159 216q0 4 -2.5 6.5t-6.5 2.5t-6.5 -2.5t-2.5 -6.5v-109l-41 40q-2 3 -6 3t-7 -2.5t-3 -6.5t3 -7l56 -56q3 -3 7 -3t7 3l56 56q3 3 3 7t-3 6.5t-7 2.5t-6 -3l-41 -40v109z" />
    <glyph glyph-name="arrow-down-left-circle-fill" unicode="arrow&#x2d;down&#x2d;left&#x2d;circle&#x2d;fill" 
d="M300 150q0 41 -20 75.5t-54.5 54.5t-75.5 20t-75.5 -20t-54.5 -54.5t-20 -75.5t20 -75.5t54.5 -54.5t75.5 -20t75.5 20t54.5 54.5t20 75.5zM189 203q4 4 9.5 2.5t7 -7t-2.5 -9.5l-77 -76h52q4 -1 6.5 -3.5t2.5 -6.5t-2.5 -6.5t-6.5 -2.5h-75q-4 0 -6.5 2.5t-2.5 6.5v75
q0 4 2.5 6.5t6.5 2.5t7 -2.5t3 -6.5v-52z" />
    <glyph glyph-name="arrow-down-left-circle" unicode="arrow&#x2d;down&#x2d;left&#x2d;circle" 
d="M19 150q0 -36 17.5 -66t47.5 -47.5t66 -17.5t66 17.5t47.5 47.5t17.5 66t-17.5 66t-47.5 47.5t-66 17.5t-66 -17.5t-47.5 -47.5t-17.5 -66zM300 150q0 -41 -20 -75.5t-54.5 -54.5t-75.5 -20t-75.5 20t-54.5 54.5t-20 75.5t20 75.5t54.5 54.5t75.5 20t75.5 -20t54.5 -54.5
t20 -75.5zM189 204q3 2 7 2t6.5 -2.5t2.5 -6.5t-2 -7l-77 -77h52q4 0 6.5 -2.5t2.5 -6.5t-2.5 -6.5t-6.5 -2.5h-75q-4 0 -6.5 2.5t-2.5 6.5v75q0 3 2.5 6t6.5 3t7 -3t3 -6v-52z" />
    <glyph glyph-name="arrow-down-left-square-fill" unicode="arrow&#x2d;down&#x2d;left&#x2d;square&#x2d;fill" 
d="M38 0q-16 0 -27 11t-11 26v226q0 15 11 26t27 11h225q15 0 26 -11t11 -27v-224q0 -16 -11 -27t-27 -11h-224zM189 203l-76 -77v52q-1 4 -3.5 6.5t-6.5 2.5t-6.5 -2.5t-2.5 -6.5v-75q0 -4 2.5 -6.5t6.5 -2.5h75q4 0 6.5 2.5t2.5 6.5t-2.5 7t-6.5 3h-52l77 76q4 4 2.5 9.5
t-7 7t-9.5 -2.5z" />
    <glyph glyph-name="arrow-down-left-square" unicode="arrow&#x2d;down&#x2d;left&#x2d;square" 
d="M281 263q0 7 -5.5 12.5t-12.5 5.5h-225q-8 0 -13.5 -5.5t-5.5 -12.5v-225q0 -8 5.5 -13.5t13.5 -5.5h225q7 0 12.5 5.5t5.5 13.5v225zM0 263q0 15 11 26t27 11h225q15 0 26 -11t11 -27v-224q0 -16 -11 -27t-27 -11h-224q-16 0 -27 11t-11 26v226zM189 204q3 2 7 2
t6.5 -2.5t2.5 -6.5t-2 -7l-77 -77h52q4 0 6.5 -2.5t2.5 -6.5t-2.5 -6.5t-6.5 -2.5h-75q-4 0 -6.5 2.5t-2.5 6.5v75q0 3 2.5 6t6.5 3t7 -3t3 -6v-52z" />
    <glyph glyph-name="arrow-down-left" unicode="arrow&#x2d;down&#x2d;left" 
d="M38 47q0 -4 2.5 -6.5t6.5 -2.5h112q4 0 7 2.5t3 6.5t-3 6.5t-7 2.5h-89l190 190q3 3 3 7t-3 7t-7 3t-7 -3l-190 -190v89q0 4 -2.5 7t-6.5 3t-6.5 -3t-2.5 -7v-112z" />
    <glyph glyph-name="arrow-down-right-circle-fill" unicode="arrow&#x2d;down&#x2d;right&#x2d;circle&#x2d;fill" 
d="M0 150q0 41 20 75.5t54.5 54.5t75.5 20t75.5 -20t54.5 -54.5t20 -75.5t-20 -75.5t-54.5 -54.5t-75.5 -20t-75.5 20t-54.5 54.5t-20 75.5zM111 203q-4 4 -9.5 2.5t-7 -7t2.5 -9.5l77 -76h-52q-4 -1 -6.5 -3.5t-2.5 -6.5t2.5 -6.5t6.5 -2.5h75q4 0 6.5 2.5t2.5 6.5v75
q0 4 -2.5 6.5t-6.5 2.5t-7 -2.5t-3 -6.5v-52z" />
    <glyph glyph-name="arrow-down-right-circle" unicode="arrow&#x2d;down&#x2d;right&#x2d;circle" 
d="M19 150q0 -36 17.5 -66t47.5 -47.5t66 -17.5t66 17.5t47.5 47.5t17.5 66t-17.5 66t-47.5 47.5t-66 17.5t-66 -17.5t-47.5 -47.5t-17.5 -66zM300 150q0 -41 -20 -75.5t-54.5 -54.5t-75.5 -20t-75.5 20t-54.5 54.5t-20 75.5t20 75.5t54.5 54.5t75.5 20t75.5 -20t54.5 -54.5
t20 -75.5zM110 204q-3 2 -7 2t-6.5 -2.5t-2.5 -6.5t2 -7l77 -77h-52q-3 0 -6 -2.5t-3 -6.5t3 -6.5t6 -2.5h75q4 0 6.5 2.5t2.5 6.5v75q0 3 -2.5 6t-6.5 3t-6.5 -3t-2.5 -6v-52z" />
    <glyph glyph-name="arrow-down-right-square-fill" unicode="arrow&#x2d;down&#x2d;right&#x2d;square&#x2d;fill" 
d="M263 0q15 0 26 11t11 27v225q0 15 -11 26t-27 11h-224q-16 0 -27 -11t-11 -27v-224q0 -16 11 -27t26 -11h226zM111 203l77 -77v52q0 4 2.5 6.5t6.5 2.5t6.5 -2.5t2.5 -6.5v-75q0 -4 -2.5 -6.5t-6.5 -2.5h-75q-4 0 -6.5 2.5t-2.5 6.5t2.5 7t6.5 3h52l-77 76q-2 3 -2 7
t2.5 6.5t6.5 2.5t7 -2z" />
    <glyph glyph-name="arrow-down-right-square" unicode="arrow&#x2d;down&#x2d;right&#x2d;square" 
d="M281 263q0 7 -5.5 12.5t-12.5 5.5h-225q-8 0 -13.5 -5.5t-5.5 -12.5v-225q0 -8 5.5 -13.5t13.5 -5.5h225q7 0 12.5 5.5t5.5 13.5v225zM0 263q0 15 11 26t27 11h225q15 0 26 -11t11 -27v-224q0 -16 -11 -27t-27 -11h-224q-16 0 -27 11t-11 26v226zM110 204q-3 2 -7 2
t-6.5 -2.5t-2.5 -6.5t2 -7l77 -77h-52q-3 0 -6 -2.5t-3 -6.5t3 -6.5t6 -2.5h75q4 0 6.5 2.5t2.5 6.5v75q0 3 -2.5 6t-6.5 3t-6.5 -3t-2.5 -6v-52z" />
    <glyph glyph-name="arrow-down-right" unicode="arrow&#x2d;down&#x2d;right" 
d="M263 47q0 -4 -3 -6.5t-7 -2.5h-112q-4 0 -7 2.5t-3 6.5t3 6.5t7 2.5h89l-190 190q-3 3 -3 7t3 7t7 3t7 -3l190 -190v89q0 4 2.5 7t6.5 3t7 -3t3 -7v-112z" />
    <glyph glyph-name="arrow-down-short" unicode="arrow&#x2d;down&#x2d;short" 
d="M150 225q4 0 6.5 -2.5t2.5 -6.5v-109l41 40q2 3 6 3t7 -2.5t3 -6.5t-3 -7l-56 -56q-3 -3 -7 -3t-7 3l-56 56q-3 3 -3 7t3 6.5t7 2.5t6 -3l41 -40v109q0 4 2.5 6.5t6.5 2.5z" />
    <glyph glyph-name="arrow-down-square-fill" unicode="arrow&#x2d;down&#x2d;square&#x2d;fill" 
d="M38 300q-16 0 -27 -11t-11 -27v-224q0 -16 11 -27t26 -11h226q15 0 26 11t11 27v225q0 15 -11 26t-27 11h-224zM159 216v-109l41 40q2 3 6 3t7 -2.5t3 -6.5t-3 -7l-56 -56q-3 -3 -7 -3t-7 3l-56 56q-3 3 -3 7t3 6.5t7 2.5t6 -3l41 -40v109q0 4 2.5 6.5t6.5 2.5t6.5 -2.5
t2.5 -6.5z" />
    <glyph glyph-name="arrow-down-square" unicode="arrow&#x2d;down&#x2d;square" 
d="M281 263q0 7 -5.5 12.5t-12.5 5.5h-225q-8 0 -13.5 -5.5t-5.5 -12.5v-225q0 -8 5.5 -13.5t13.5 -5.5h225q7 0 12.5 5.5t5.5 13.5v225zM0 263q0 15 11 26t27 11h225q15 0 26 -11t11 -27v-224q0 -16 -11 -27t-27 -11h-224q-16 0 -27 11t-11 26v226zM159 216q0 4 -2.5 6.5
t-6.5 2.5t-6.5 -2.5t-2.5 -6.5v-109l-41 40q-2 3 -6 3t-7 -2.5t-3 -6.5t3 -7l56 -56q3 -3 7 -3t7 3l56 56q3 3 3 7t-3 6.5t-7 2.5t-6 -3l-41 -40v109z" />
    <glyph glyph-name="arrow-down-up" unicode="arrow&#x2d;down&#x2d;up" 
d="M216 19q4 0 6.5 2.5t2.5 6.5v221l59 -59q3 -3 7 -3t6.5 3t2.5 7t-3 7l-75 75q-2 2 -6 2t-7 -2l-75 -75q-4 -4 -2.5 -9.5t6.5 -7t9 2.5l59 59v-221q0 -4 3 -6.5t7 -2.5zM84 281q4 0 7 -2.5t3 -6.5v-221l59 59q2 3 6 3t7 -3t3 -7t-3 -7l-75 -75q-3 -2 -7 -2t-6 2l-75 75
q-3 3 -3 7t2.5 7t6.5 3t7 -3l59 -59v221q0 4 2.5 6.5t6.5 2.5z" />
    <glyph glyph-name="arrow-down" unicode="arrow&#x2d;down" 
d="M150 281q4 0 6.5 -2.5t2.5 -6.5v-221l59 59q3 3 7 3t6.5 -3t2.5 -7t-2 -7l-75 -75q-3 -2 -7 -2t-7 2l-75 75q-2 3 -2 7t2.5 7t6.5 3t7 -3l59 -59v221q0 4 2.5 6.5t6.5 2.5z" />
    <glyph glyph-name="arrow-left-circle-fill" unicode="arrow&#x2d;left&#x2d;circle&#x2d;fill" 
d="M150 300q-41 0 -75.5 -20t-54.5 -54.5t-20 -75.5t20 -75.5t54.5 -54.5t75.5 -20t75.5 20t54.5 54.5t20 75.5t-20 75.5t-54.5 54.5t-75.5 20zM216 159q4 0 6.5 -2.5t2.5 -6.5t-2.5 -6.5t-6.5 -2.5h-109l40 -41q3 -2 3 -6t-2.5 -7t-6.5 -3t-7 3l-56 56q-3 3 -3 7t3 7l56 56
q4 4 9 2.5t6.5 -7t-2.5 -8.5l-40 -41h109z" />
    <glyph glyph-name="arrow-left-circle" unicode="arrow&#x2d;left&#x2d;circle" 
d="M19 150q0 -36 17.5 -66t47.5 -47.5t66 -17.5t66 17.5t47.5 47.5t17.5 66t-17.5 66t-47.5 47.5t-66 17.5t-66 -17.5t-47.5 -47.5t-17.5 -66zM300 150q0 -41 -20 -75.5t-54.5 -54.5t-75.5 -20t-75.5 20t-54.5 54.5t-20 75.5t20 75.5t54.5 54.5t75.5 20t75.5 -20t54.5 -54.5
t20 -75.5zM216 159q4 0 6.5 -2.5t2.5 -6.5t-2.5 -6.5t-6.5 -2.5h-109l40 -41q3 -2 3 -6t-2.5 -7t-6.5 -3t-7 3l-56 56q-3 3 -3 7t3 7l56 56q4 4 9 2.5t6.5 -7t-2.5 -8.5l-40 -41h109z" />
    <glyph glyph-name="arrow-left-right" unicode="arrow&#x2d;left&#x2d;right" 
d="M19 84q0 -4 2.5 -6.5t6.5 -2.5h221l-59 -59q-3 -3 -3 -7t3 -6.5t7 -2.5t7 3l75 75q2 2 2 6t-2 7l-75 75q-3 3 -7 3t-7 -3t-3 -7t3 -6l59 -59h-221q-4 0 -6.5 -3t-2.5 -7zM281 216q0 -4 -2.5 -7t-6.5 -3h-221l59 -59q3 -2 3 -6t-3 -7t-7 -3t-7 3l-75 75q-2 3 -2 7t2 6
l75 75q3 3 7 3t7 -2.5t3 -6.5t-3 -7l-59 -59h221q4 0 6.5 -2.5t2.5 -6.5z" />
    <glyph glyph-name="arrow-left-short" unicode="arrow&#x2d;left&#x2d;short" 
d="M225 150q0 -4 -2.5 -6.5t-6.5 -2.5h-109l40 -41q3 -2 3 -6t-2.5 -7t-6.5 -3t-7 3l-56 56q-3 3 -3 7t3 7l56 56q4 4 9 2.5t6.5 -7t-2.5 -8.5l-40 -41h109q4 0 6.5 -2.5t2.5 -6.5z" />
    <glyph glyph-name="arrow-left-square-fill" unicode="arrow&#x2d;left&#x2d;square&#x2d;fill" 
d="M300 38q0 -16 -11 -27t-27 -11h-224q-16 0 -27 11t-11 26v226q0 15 11 26t27 11h225q15 0 26 -11t11 -27v-224zM216 159h-109l40 41q4 3 2.5 8.5t-6.5 7t-9 -2.5l-56 -56q-3 -3 -3 -7t3 -7l56 -56q3 -3 7 -3t6.5 3t2.5 7t-3 6l-40 41h109q4 0 6.5 2.5t2.5 6.5t-2.5 6.5
t-6.5 2.5z" />
    <glyph glyph-name="arrow-left-square" unicode="arrow&#x2d;left&#x2d;square" 
d="M281 263q0 7 -5.5 12.5t-12.5 5.5h-225q-8 0 -13.5 -5.5t-5.5 -12.5v-225q0 -8 5.5 -13.5t13.5 -5.5h225q7 0 12.5 5.5t5.5 13.5v225zM0 263q0 15 11 26t27 11h225q15 0 26 -11t11 -27v-224q0 -16 -11 -27t-27 -11h-224q-16 0 -27 11t-11 26v226zM216 159q4 0 6.5 -2.5
t2.5 -6.5t-2.5 -6.5t-6.5 -2.5h-109l40 -41q3 -2 3 -6t-2.5 -7t-6.5 -3t-7 3l-56 56q-3 3 -3 7t3 7l56 56q4 4 9 2.5t6.5 -7t-2.5 -8.5l-40 -41h109z" />
    <glyph glyph-name="arrow-left" unicode="arrow&#x2d;left" 
d="M281 150q0 4 -2.5 6.5t-6.5 2.5h-221l59 59q3 3 3 7t-3 6.5t-7 2.5t-7 -2l-75 -75q-2 -3 -2 -7t2 -7l75 -75q3 -2 7 -2t7 2.5t3 6.5t-3 7l-59 59h221q4 0 6.5 2.5t2.5 6.5z" />
    <glyph glyph-name="arrow-repeat" unicode="arrow&#x2d;repeat" 
d="M216 169h74q3 0 4 -3t0 -5l-37 -44q-2 -2 -4 -2t-3 2l-37 44q-2 2 -1 5t4 3zM10 131h74q3 0 4 3t-1 5l-37 44q-1 2 -3 2t-4 -2l-37 -44q-1 -2 0 -5t4 -3zM150 244q-21 0 -40 -9t-32 -25q-4 -5 -9.5 -4t-7 6t1.5 10q21 25 52.5 35t63.5 1.5t54 -33t28 -56.5h-19
q-7 32 -33 53.5t-59 21.5zM58 131q6 -26 24.5 -45.5t45 -26t52 1.5t42.5 29q4 5 9.5 4t7 -6t-1.5 -10q-21 -25 -52.5 -35t-63.5 -1.5t-54 33t-28 56.5h19z" />
    <glyph glyph-name="arrow-return-left" unicode="arrow&#x2d;return&#x2d;left" 
d="M272 272q4 0 6.5 -3t2.5 -6v-90q0 -20 -13.5 -33.5t-33.5 -13.5h-183l63 -63q2 -3 2 -7t-2.5 -6.5t-6.5 -2.5t-7 3l-79 78q-2 3 -2 7t2 7l75 75q3 2 7 2t7 -2.5t3 -6.5t-3 -7l-59 -59h183q12 0 20.5 8.5t7.5 20.5v90q1 3 3.5 6t6.5 3z" />
    <glyph glyph-name="arrow-return-right" unicode="arrow&#x2d;return&#x2d;right" 
d="M28 272q-4 0 -6.5 -3t-2.5 -6v-90q0 -20 13.5 -33.5t33.5 -13.5h183l-63 -63q-2 -3 -2 -7t2.5 -6.5t6.5 -2.5t7 3l79 78q2 3 2 7t-2 7l-75 75q-3 2 -7 2t-7 -2.5t-3 -6.5t3 -7l59 -59h-183q-12 0 -20.5 8.5t-8.5 20.5v90q1 3 -2 6t-7 3z" />
    <glyph glyph-name="arrow-right-circle-fill" unicode="arrow&#x2d;right&#x2d;circle&#x2d;fill" 
d="M150 300q41 0 75.5 -20t54.5 -54.5t20 -75.5t-20 -75.5t-54.5 -54.5t-75.5 -20t-75.5 20t-54.5 54.5t-20 75.5t20 75.5t54.5 54.5t75.5 20zM84 159q-4 0 -6.5 -2.5t-2.5 -6.5t2.5 -6.5t6.5 -2.5h109l-40 -41q-3 -2 -3 -6t2.5 -7t6.5 -3t7 3l56 56q3 3 3 7t-3 7l-56 56
q-4 4 -9 2.5t-6.5 -7t2.5 -8.5l40 -41h-109z" />
    <glyph glyph-name="arrow-right-circle" unicode="arrow&#x2d;right&#x2d;circle" 
d="M19 150q0 -36 17.5 -66t47.5 -47.5t66 -17.5t66 17.5t47.5 47.5t17.5 66t-17.5 66t-47.5 47.5t-66 17.5t-66 -17.5t-47.5 -47.5t-17.5 -66zM300 150q0 -41 -20 -75.5t-54.5 -54.5t-75.5 -20t-75.5 20t-54.5 54.5t-20 75.5t20 75.5t54.5 54.5t75.5 20t75.5 -20t54.5 -54.5
t20 -75.5zM84 159q-4 0 -6.5 -2.5t-2.5 -6.5t2.5 -6.5t6.5 -2.5h109l-40 -41q-3 -2 -3 -6t2.5 -7t6.5 -3t7 3l56 56q3 3 3 7t-3 7l-56 56q-4 4 -9 2.5t-6.5 -7t2.5 -8.5l40 -41h-109z" />
    <glyph glyph-name="arrow-right-short" unicode="arrow&#x2d;right&#x2d;short" 
d="M75 150q0 4 2.5 6.5t6.5 2.5h109l-40 41q-4 3 -2.5 8.5t6.5 7t9 -2.5l56 -56q3 -3 3 -7t-3 -7l-56 -56q-3 -3 -7 -3t-6.5 3t-2.5 7t3 6l40 41h-109q-4 0 -6.5 2.5t-2.5 6.5z" />
    <glyph glyph-name="arrow-right-square-fill" unicode="arrow&#x2d;right&#x2d;square&#x2d;fill" 
d="M0 38q0 -16 11 -27t26 -11h226q15 0 26 11t11 27v225q0 15 -11 26t-27 11h-224q-16 0 -27 -11t-11 -27v-224zM84 159h109l-40 41q-4 3 -2.5 8.5t6.5 7t9 -2.5l56 -56q3 -3 3 -7t-3 -7l-56 -56q-3 -3 -7 -3t-6.5 3t-2.5 7t3 6l40 41h-109q-4 0 -6.5 2.5t-2.5 6.5t2.5 6.5
t6.5 2.5z" />
    <glyph glyph-name="arrow-right-square" unicode="arrow&#x2d;right&#x2d;square" 
d="M281 263q0 7 -5.5 12.5t-12.5 5.5h-225q-8 0 -13.5 -5.5t-5.5 -12.5v-225q0 -8 5.5 -13.5t13.5 -5.5h225q7 0 12.5 5.5t5.5 13.5v225zM0 263q0 15 11 26t27 11h225q15 0 26 -11t11 -27v-224q0 -16 -11 -27t-27 -11h-224q-16 0 -27 11t-11 26v226zM84 159q-4 0 -6.5 -2.5
t-2.5 -6.5t2.5 -6.5t6.5 -2.5h109l-40 -41q-3 -2 -3 -6t2.5 -7t6.5 -3t7 3l56 56q3 3 3 7t-3 7l-56 56q-4 4 -9 2.5t-6.5 -7t2.5 -8.5l40 -41h-109z" />
    <glyph glyph-name="arrow-right" unicode="arrow&#x2d;right" 
d="M19 150q0 4 2.5 6.5t6.5 2.5h221l-59 59q-3 3 -3 7t3 6.5t7 2.5t7 -2l75 -75q2 -3 2 -7t-2 -7l-75 -75q-3 -2 -7 -2t-7 2.5t-3 6.5t3 7l59 59h-221q-4 0 -6.5 2.5t-2.5 6.5z" />
    <glyph glyph-name="arrow-up-circle-fill" unicode="arrow&#x2d;up&#x2d;circle&#x2d;fill" 
d="M300 150q0 41 -20 75.5t-54.5 54.5t-75.5 20t-75.5 -20t-54.5 -54.5t-20 -75.5t20 -75.5t54.5 -54.5t75.5 -20t75.5 20t54.5 54.5t20 75.5zM159 84q0 -4 -2.5 -6.5t-6.5 -2.5t-6.5 2.5t-2.5 6.5v109l-41 -40q-2 -3 -6 -3t-7 2.5t-3 6.5t3 7l56 56q3 3 7 3t7 -3l56 -56
q3 -3 3 -7t-3 -6.5t-7 -2.5t-6 3l-41 40v-109z" />
    <glyph glyph-name="arrow-up-circle" unicode="arrow&#x2d;up&#x2d;circle" 
d="M19 150q0 -36 17.5 -66t47.5 -47.5t66 -17.5t66 17.5t47.5 47.5t17.5 66t-17.5 66t-47.5 47.5t-66 17.5t-66 -17.5t-47.5 -47.5t-17.5 -66zM300 150q0 -41 -20 -75.5t-54.5 -54.5t-75.5 -20t-75.5 20t-54.5 54.5t-20 75.5t20 75.5t54.5 54.5t75.5 20t75.5 -20t54.5 -54.5
t20 -75.5zM159 84q0 -4 -2.5 -6.5t-6.5 -2.5t-6.5 2.5t-2.5 6.5v109l-41 -40q-2 -3 -6 -3t-7 2.5t-3 6.5t3 7l56 56q3 3 7 3t7 -3l56 -56q3 -3 3 -7t-3 -6.5t-7 -2.5t-6 3l-41 40v-109z" />
    <glyph glyph-name="arrow-up-left-circle-fill" unicode="arrow&#x2d;up&#x2d;left&#x2d;circle&#x2d;fill" 
d="M300 150q0 -41 -20 -75.5t-54.5 -54.5t-75.5 -20t-75.5 20t-54.5 54.5t-20 75.5t20 75.5t54.5 54.5t75.5 20t75.5 -20t54.5 -54.5t20 -75.5zM189 97q4 -4 9.5 -2.5t7 7t-2.5 9.5l-77 77h52q4 0 6.5 2.5t2.5 6.5t-2.5 6.5t-6.5 2.5h-75q-4 0 -6.5 -2.5t-2.5 -6.5v-75
q0 -4 2.5 -6.5t6.5 -2.5t7 2.5t3 6.5v52z" />
    <glyph glyph-name="arrow-up-left-circle" unicode="arrow&#x2d;up&#x2d;left&#x2d;circle" 
d="M19 150q0 -36 17.5 -66t47.5 -47.5t66 -17.5t66 17.5t47.5 47.5t17.5 66t-17.5 66t-47.5 47.5t-66 17.5t-66 -17.5t-47.5 -47.5t-17.5 -66zM300 150q0 -41 -20 -75.5t-54.5 -54.5t-75.5 -20t-75.5 20t-54.5 54.5t-20 75.5t20 75.5t54.5 54.5t75.5 20t75.5 -20t54.5 -54.5
t20 -75.5zM189 97q4 -4 9.5 -2.5t7 7t-2.5 9.5l-77 77h52q4 0 6.5 2.5t2.5 6.5t-2.5 6.5t-6.5 2.5h-75q-4 0 -6.5 -2.5t-2.5 -6.5v-75q0 -4 2.5 -6.5t6.5 -2.5t7 2.5t3 6.5v52z" />
    <glyph glyph-name="arrow-up-left-square-fill" unicode="arrow&#x2d;up&#x2d;left&#x2d;square&#x2d;fill" 
d="M38 300q-16 0 -27 -11t-11 -27v-224q0 -16 11 -27t26 -11h226q15 0 26 11t11 27v225q0 15 -11 26t-27 11h-224zM189 97l-76 77v-52q-1 -4 -3.5 -6.5t-6.5 -2.5t-6.5 2.5t-2.5 6.5v75q0 4 2.5 6.5t6.5 2.5h75q4 0 6.5 -2.5t2.5 -6.5t-2.5 -7t-6.5 -3h-52l77 -76
q4 -4 2.5 -9.5t-7 -7t-9.5 2.5z" />
    <glyph glyph-name="arrow-up-left-square" unicode="arrow&#x2d;up&#x2d;left&#x2d;square" 
d="M281 263q0 7 -5.5 12.5t-12.5 5.5h-225q-8 0 -13.5 -5.5t-5.5 -12.5v-225q0 -8 5.5 -13.5t13.5 -5.5h225q7 0 12.5 5.5t5.5 13.5v225zM0 263q0 15 11 26t27 11h225q15 0 26 -11t11 -27v-224q0 -16 -11 -27t-27 -11h-224q-16 0 -27 11t-11 26v226zM189 97q4 -4 9.5 -2.5
t7 7t-2.5 9.5l-77 77h52q4 0 6.5 2.5t2.5 6.5t-2.5 6.5t-6.5 2.5h-75q-4 0 -6.5 -2.5t-2.5 -6.5v-75q0 -4 2.5 -6.5t6.5 -2.5t7 2.5t3 6.5v52z" />
    <glyph glyph-name="arrow-up-left" unicode="arrow&#x2d;up&#x2d;left" 
d="M38 253q0 4 2.5 7t6.5 3h112q4 0 7 -3t3 -7t-3 -6.5t-7 -2.5h-89l190 -190q3 -3 3 -7t-3 -7t-7 -3t-7 3l-190 190v-89q0 -4 -2.5 -7t-6.5 -3t-6.5 3t-2.5 7v112z" />
    <glyph glyph-name="arrow-up-right-circle-fill" unicode="arrow&#x2d;up&#x2d;right&#x2d;circle&#x2d;fill" 
d="M0 150q0 -41 20 -75.5t54.5 -54.5t75.5 -20t75.5 20t54.5 54.5t20 75.5t-20 75.5t-54.5 54.5t-75.5 20t-75.5 -20t-54.5 -54.5t-20 -75.5zM111 97q-4 -4 -9.5 -2.5t-7 7t2.5 9.5l77 77h-52q-4 0 -6.5 2.5t-2.5 6.5t2.5 6.5t6.5 2.5h75q4 0 6.5 -2.5t2.5 -6.5v-75
q0 -4 -2.5 -6.5t-6.5 -2.5t-7 2.5t-3 6.5v52z" />
    <glyph glyph-name="arrow-up-right-circle" unicode="arrow&#x2d;up&#x2d;right&#x2d;circle" 
d="M19 150q0 -36 17.5 -66t47.5 -47.5t66 -17.5t66 17.5t47.5 47.5t17.5 66t-17.5 66t-47.5 47.5t-66 17.5t-66 -17.5t-47.5 -47.5t-17.5 -66zM300 150q0 -41 -20 -75.5t-54.5 -54.5t-75.5 -20t-75.5 20t-54.5 54.5t-20 75.5t20 75.5t54.5 54.5t75.5 20t75.5 -20t54.5 -54.5
t20 -75.5zM110 97q-4 -3 -9.5 -2t-6.5 6.5t2 9.5l77 77h-52q-3 0 -6 2.5t-3 6.5t3 6.5t6 2.5h75q4 0 6.5 -2.5t2.5 -6.5v-75q0 -4 -2.5 -6.5t-6.5 -2.5t-6.5 2.5t-2.5 6.5v52z" />
    <glyph glyph-name="arrow-up-right-square-fill" unicode="arrow&#x2d;up&#x2d;right&#x2d;square&#x2d;fill" 
d="M263 300q15 0 26 -11t11 -27v-224q0 -16 -11 -27t-27 -11h-224q-16 0 -27 11t-11 26v226q0 15 11 26t27 11h225zM111 97l77 77v-52q0 -4 2.5 -6.5t6.5 -2.5t6.5 2.5t2.5 6.5v75q0 4 -2.5 6.5t-6.5 2.5h-75q-4 0 -6.5 -2.5t-2.5 -6.5t2.5 -7t6.5 -3h52l-77 -76
q-2 -3 -2 -7t2.5 -6.5t6.5 -2.5t7 2z" />
    <glyph glyph-name="arrow-up-right-square" unicode="arrow&#x2d;up&#x2d;right&#x2d;square" 
d="M281 263q0 7 -5.5 12.5t-12.5 5.5h-225q-8 0 -13.5 -5.5t-5.5 -12.5v-225q0 -8 5.5 -13.5t13.5 -5.5h225q7 0 12.5 5.5t5.5 13.5v225zM0 263q0 15 11 26t27 11h225q15 0 26 -11t11 -27v-224q0 -16 -11 -27t-27 -11h-224q-16 0 -27 11t-11 26v226zM110 97q-4 -3 -9.5 -2
t-6.5 6.5t2 9.5l77 77h-52q-3 0 -6 2.5t-3 6.5t3 6.5t6 2.5h75q4 0 6.5 -2.5t2.5 -6.5v-75q0 -4 -2.5 -6.5t-6.5 -2.5t-6.5 2.5t-2.5 6.5v52z" />
    <glyph glyph-name="arrow-up-right" unicode="arrow&#x2d;up&#x2d;right" 
d="M263 253q0 4 -3 7t-7 3h-112q-4 0 -7 -3t-3 -7t3 -6.5t7 -2.5h89l-190 -190q-3 -3 -3 -7t3 -7t7 -3t7 3l190 190v-89q0 -4 2.5 -7t6.5 -3t7 3t3 7v112z" />
    <glyph glyph-name="arrow-up-short" unicode="arrow&#x2d;up&#x2d;short" 
d="M150 75q4 0 6.5 2.5t2.5 6.5v109l41 -40q2 -3 6 -3t7 2.5t3 6.5t-3 7l-56 56q-3 3 -7 3t-7 -3l-56 -56q-3 -3 -3 -7t3 -6.5t7 -2.5t6 3l41 40v-109q0 -4 2.5 -6.5t6.5 -2.5z" />
    <glyph glyph-name="arrow-up-square-fill" unicode="arrow&#x2d;up&#x2d;square&#x2d;fill" 
d="M38 0q-16 0 -27 11t-11 26v226q0 15 11 26t27 11h225q15 0 26 -11t11 -27v-224q0 -16 -11 -27t-27 -11h-224zM159 84v109l41 -40q2 -3 6 -3t7 2.5t3 6.5t-3 7l-56 56q-3 3 -7 3t-7 -3l-56 -56q-3 -3 -3 -7t3 -6.5t7 -2.5t6 3l41 40v-109q0 -4 2.5 -6.5t6.5 -2.5t6.5 2.5
t2.5 6.5z" />
    <glyph glyph-name="arrow-up-square" unicode="arrow&#x2d;up&#x2d;square" 
d="M281 263q0 7 -5.5 12.5t-12.5 5.5h-225q-8 0 -13.5 -5.5t-5.5 -12.5v-225q0 -8 5.5 -13.5t13.5 -5.5h225q7 0 12.5 5.5t5.5 13.5v225zM0 263q0 15 11 26t27 11h225q15 0 26 -11t11 -27v-224q0 -16 -11 -27t-27 -11h-224q-16 0 -27 11t-11 26v226zM159 84q0 -4 -2.5 -6.5
t-6.5 -2.5t-6.5 2.5t-2.5 6.5v109l-41 -40q-2 -3 -6 -3t-7 2.5t-3 6.5t3 7l56 56q3 3 7 3t7 -3l56 -56q3 -3 3 -7t-3 -6.5t-7 -2.5t-6 3l-41 40v-109z" />
    <glyph glyph-name="arrow-up" unicode="arrow&#x2d;up" 
d="M150 19q4 0 6.5 2.5t2.5 6.5v221l59 -59q3 -3 7 -3t6.5 3t2.5 7t-2 7l-75 75q-3 2 -7 2t-7 -2l-75 -75q-2 -3 -2 -7t2.5 -7t6.5 -3t7 3l59 59v-221q0 -4 2.5 -6.5t6.5 -2.5z" />
    <glyph glyph-name="arrows-angle-contract" unicode="arrows&#x2d;angle&#x2d;contract" 
d="M3 3q3 -3 7 -3t6 3l77 77v-52q0 -4 3 -6.5t7 -2.5t6.5 2.5t2.5 6.5v75q0 4 -2.5 6.5t-6.5 2.5h-75q-4 0 -6.5 -2.5t-2.5 -6.5t2.5 -7t6.5 -3h52l-77 -77q-3 -2 -3 -6t3 -7zM297 297q-3 3 -7 3t-6 -3l-77 -77v52q0 4 -3 6.5t-7 2.5t-6.5 -2.5t-2.5 -6.5v-75q0 -4 2.5 -6.5
t6.5 -2.5h75q4 0 6.5 2.5t2.5 6.5t-2.5 7t-6.5 3h-52l77 77q3 2 3 6t-3 7z" />
    <glyph glyph-name="arrows-angle-expand" unicode="arrows&#x2d;angle&#x2d;expand" 
d="M109 109q-2 3 -6 3t-7 -3l-77 -77v52q0 4 -2.5 7t-6.5 3t-7 -3t-3 -7v-74q0 -4 3 -7t7 -3h74q4 0 7 3t3 7t-3 6.5t-7 2.5h-52l77 77q3 3 3 7t-3 6zM191 191q2 -3 6 -3t7 3l77 77v-52q0 -4 2.5 -7t6.5 -3t7 3t3 7v74q0 4 -3 7t-7 3h-74q-4 0 -7 -3t-3 -7t3 -6.5t7 -2.5h52
l-77 -77q-3 -3 -3 -7t3 -6z" />
    <glyph glyph-name="arrows-collapse" unicode="arrows&#x2d;collapse" 
d="M19 150q0 4 2.5 6.5t6.5 2.5h244q4 0 6.5 -2.5t2.5 -6.5t-2.5 -6.5t-6.5 -2.5h-244q-4 0 -6.5 2.5t-2.5 6.5zM150 300q4 0 6.5 -2.5t2.5 -6.5v-71l22 21q3 3 6.5 3t6.5 -3t3 -7t-3 -6l-37 -38q-3 -3 -7 -3t-7 3l-37 38q-3 2 -3 6t3 7t6.5 3t6.5 -3l22 -21v71q0 4 2.5 6.5
t6.5 2.5zM141 80l-22 -21q-3 -3 -6.5 -3t-6.5 3t-3 7t3 6l37 38q3 3 7 3t7 -3l37 -38q3 -2 3 -6t-3 -7t-6.5 -3t-6.5 3l-22 21v-71q0 -4 -2.5 -6.5t-6.5 -2.5t-6.5 2.5t-2.5 6.5v71z" />
    <glyph glyph-name="arrows-expand" unicode="arrows&#x2d;expand" 
d="M19 150q0 4 2.5 6.5t6.5 2.5h244q4 0 6.5 -2.5t2.5 -6.5t-2.5 -6.5t-6.5 -2.5h-244q-4 0 -6.5 2.5t-2.5 6.5zM143 297q3 3 7 3t7 -3l37 -37q3 -3 3 -7t-3 -6.5t-6.5 -2.5t-6.5 2l-22 22v-71q0 -4 -2.5 -7t-6.5 -2.5t-6.5 3t-2.5 6.5v71l-22 -22q-3 -2 -6.5 -2t-6.5 2.5
t-3 6.5t3 7zM150 113q4 -1 6.5 -3.5t2.5 -6.5v-71l22 22q3 2 6.5 2t6.5 -2.5t3 -6.5t-3 -7l-37 -37q-3 -3 -7 -3t-7 3l-37 37q-3 3 -3 7t3 6.5t6.5 2.5t6.5 -2l22 -22v71q0 4 2.5 7t6.5 3z" />
    <glyph glyph-name="arrows-fullscreen" unicode="arrows&#x2d;fullscreen" 
d="M109 109q-2 3 -6 3t-7 -3l-77 -77v52q0 4 -2.5 7t-6.5 3t-7 -3t-3 -7v-74q0 -4 3 -7t7 -3h74q4 0 7 3t3 7t-3 6.5t-7 2.5h-52l77 77q3 3 3 7t-3 6zM191 109q2 3 6 3t7 -3l77 -77v52q0 4 2.5 7t6.5 3t7 -3t3 -7v-74q0 -4 -3 -7t-7 -3h-74q-4 0 -7 3t-3 7t3 6.5t7 2.5h52
l-77 77q-3 3 -3 7t3 6zM191 191q2 -3 6 -3t7 3l77 77v-52q0 -4 2.5 -7t6.5 -3t7 3t3 7v74q0 4 -3 7t-7 3h-74q-4 0 -7 -3t-3 -7t3 -6.5t7 -2.5h52l-77 -77q-3 -3 -3 -7t3 -6zM109 191q-2 -3 -6 -3t-7 3l-77 77v-52q0 -4 -2.5 -7t-6.5 -3t-7 3t-3 7v74q0 4 3 7t7 3h74
q4 0 7 -3t3 -7t-3 -6.5t-7 -2.5h-52l77 -77q3 -3 3 -7t-3 -6z" />
    <glyph glyph-name="arrows-move" unicode="arrows&#x2d;move" 
d="M143 297q3 3 7 3t7 -3l37 -37q3 -3 3 -7t-3 -6.5t-6.5 -2.5t-6.5 2l-22 22v-71q0 -4 -2.5 -7t-6.5 -2.5t-6.5 3t-2.5 6.5v71l-22 -22q-3 -2 -6.5 -2t-6.5 2.5t-3 6.5t3 7zM150 113q4 -1 6.5 -3.5t2.5 -6.5v-71l22 22q3 2 6.5 2t6.5 -2.5t3 -6.5t-3 -7l-37 -37
q-3 -3 -7 -3t-7 3l-37 37q-3 3 -3 7t3 6.5t6.5 2.5t6.5 -2l22 -22v71q0 4 2.5 7t6.5 3zM3 143q-3 3 -3 7t3 7l37 37q3 3 7 3t6.5 -3t2.5 -6.5t-2 -6.5l-22 -22h71q4 0 7 -2.5t2.5 -6.5t-3 -6.5t-6.5 -2.5h-71l22 -22q2 -3 2 -6.5t-2.5 -6.5t-6.5 -3t-7 3zM188 150
q0 4 2.5 6.5t6.5 2.5h71l-22 22q-2 3 -2 6.5t2.5 6.5t6.5 3t7 -3l37 -37q3 -3 3 -7t-3 -7l-37 -37q-3 -3 -7 -3t-6.5 3t-2.5 6.5t2 6.5l22 22h-71q-4 0 -7 2.5t-3 6.5h1z" />
    <glyph glyph-name="aspect-ratio-fill" unicode="aspect&#x2d;ratio&#x2d;fill" 
d="M0 66v168q0 12 8 20.5t20 7.5h244q12 1 20 -7.5t8 -20.5v-168q0 -12 -8 -20t-20 -8h-244q-12 0 -20 8t-8 20zM47 225q-4 0 -6.5 -2.5t-2.5 -6.5v-57q0 -4 2.5 -6.5t6.5 -2.5t6.5 2.5t2.5 6.5v47h47q4 0 7 3t2.5 7t-3 6.5t-6.5 2.5h-56zM253 75q4 0 7 2.5t3 6.5v57
q0 4 -3 6.5t-7 2.5t-6.5 -2.5t-2.5 -6.5v-47h-47q-4 0 -7 -3t-2.5 -7t3 -6.5t6.5 -2.5h56z" />
    <glyph glyph-name="aspect-ratio" unicode="aspect&#x2d;ratio" 
d="M0 234q0 12 8 20.5t20 7.5h244q12 1 20 -7.5t8 -20.5v-168q0 -12 -8 -20t-20 -8h-244q-12 0 -20 8t-8 20v168zM28 244q-4 0 -6.5 -3t-2.5 -7v-168q0 -4 2.5 -7t6.5 -3h244q4 0 6.5 3t2.5 7v168q0 4 -2.5 7t-6.5 3h-244zM38 216q0 4 2.5 6.5t6.5 2.5h56q4 0 7 -2.5
t2.5 -6.5t-3 -7t-6.5 -3h-47v-47q0 -4 -2.5 -6.5t-6.5 -2.5t-6.5 2.5t-2.5 6.5v57zM263 84q0 -4 -3 -6.5t-7 -2.5h-56q-4 0 -7 2.5t-2.5 6.5t3 7t6.5 3h47v47q0 4 2.5 6.5t6.5 2.5t7 -2.5t3 -6.5v-57z" />
    <glyph glyph-name="asterisk" unicode="asterisk" 
d="M150 300q8 0 13.5 -5.5t5.5 -13.5v-99l85 50q5 2 10 2t9 -2.5t7 -6.5t3 -9t-3 -9.5t-7 -7.5l-85 -49l85 -49q4 -3 7 -7.5t3 -9.5t-3 -9t-7 -6.5t-9 -2.5t-10 2l-85 50v-99q0 -8 -5.5 -13.5t-13.5 -5.5t-13.5 5.5t-5.5 13.5v99l-85 -50q-5 -2 -10 -2t-9 2.5t-7 6.5t-3 9
t3 9.5t7 7.5l86 49l-86 49q-7 4 -9 11.5t2 14.5t11.5 9t14.5 -2l85 -50v99q0 8 5.5 13.5t13.5 5.5z" />
    <glyph glyph-name="at" unicode="at" 
d="M246 165q0 27 -13 48.5t-36.5 33.5t-54 12t-54.5 -13.5t-37.5 -38t-13.5 -55.5q0 -49 29.5 -78t78.5 -29q25 0 43 6v16q-6 -2 -17.5 -4t-25.5 -2q-41 0 -65.5 24.5t-24.5 65.5q0 27 11 47.5t31 32.5t44 12q39 0 63 -21.5t24 -56.5q0 -24 -7.5 -38t-19.5 -14
q-7 0 -10.5 3.5t-3.5 10.5v75h-20v-15h-2q-3 8 -11.5 13t-18.5 5q-19 0 -31.5 -15t-12.5 -39t12 -39t32 -15q12 0 20 5.5t12 15.5h2q2 -10 9.5 -16t19.5 -6q22 0 35 18.5t13 50.5zM111 151q0 17 7.5 26.5t20.5 9.5t20.5 -9.5t7.5 -26t-8 -26t-20.5 -10t-20 9.5t-7.5 26z" />
    <glyph glyph-name="award-fill" unicode="award&#x2d;fill" 
d="M150 300l31 -16l35 -5l16 -32l25 -25l-6 -34l6 -35l-25 -25l-16 -32l-35 -5l-31 -16l-31 16l-35 5l-16 32l-25 25l6 35l-6 34l25 25l16 32l35 5zM75 79v-79l75 19l75 -19v79l-38 -6l-37 -19l-37 19z" />
    <glyph glyph-name="award" unicode="award" 
d="M181 284l-31 16l-31 -16l-35 -5l-16 -32l-25 -25l6 -34l-6 -35l25 -25l16 -32l35 -5l31 -16l31 16l35 5l16 32l25 25l-6 35l6 34l-25 25l-16 32zM204 261l13 -25l20 -20l-5 -28l5 -29l-20 -20l-13 -25l-29 -5l-25 -13l-25 13l-29 5l-13 25l-20 20l5 29l-5 28l20 20l13 25
l29 5l25 13l25 -13zM75 79v-79l75 19l75 -19v79l-38 -6l-37 -19l-37 19z" />
    <glyph glyph-name="back" unicode="back" 
d="M0 263q0 15 11 26t27 11h150q15 0 26 -11t11 -27v-37h38q15 0 26 -11t11 -27v-149q0 -16 -11 -27t-27 -11h-149q-16 0 -27 11t-11 26v38h-37q-16 0 -27 11t-11 27v150zM38 281q-8 0 -13.5 -5.5t-5.5 -12.5v-150q0 -8 5.5 -13.5t13.5 -5.5h150q7 0 12.5 5.5t5.5 13.5v150
q0 7 -5.5 12.5t-13.5 5.5h-149z" />
    <glyph glyph-name="backspace-fill" unicode="backspace&#x2d;fill" 
d="M294 244q0 15 -11 26t-26 11h-133q-17 0 -29 -13l-90 -106q-5 -5 -5 -12t5 -12l90 -106q12 -13 29 -13h133q15 0 26 11t11 26v188zM109 190q-2 3 -2 7t2.5 6.5t6.5 2.5t7 -2l40 -41l40 41q4 3 9 2t6.5 -6.5t-2.5 -9.5l-40 -40l40 -40q3 -3 3 -7t-2.5 -6.5t-6.5 -2.5t-7 2
l-40 41l-40 -41q-3 -2 -7 -2t-6.5 2.5t-2.5 6.5t2 7l41 40z" />
    <glyph glyph-name="backspace-reverse-fill" unicode="backspace&#x2d;reverse&#x2d;fill" 
d="M0 244q0 15 11 26t27 11h132q18 0 29 -13l91 -106q4 -5 4 -12t-4 -12l-91 -106q-11 -13 -29 -13h-132q-16 0 -27 11t-11 26v188zM185 190q3 3 3 7t-3 6.5t-7 2.5t-7 -2l-40 -41l-40 41q-3 2 -7 2t-6.5 -2.5t-2.5 -6.5t3 -7l40 -40l-40 -40q-3 -3 -3 -7t2.5 -6.5t6.5 -2.5
t7 2l40 41l40 -41q3 -2 7 -2t7 2.5t3 6.5t-3 7l-40 40z" />
    <glyph glyph-name="backspace-reverse" unicode="backspace&#x2d;reverse" 
d="M185 204q3 -3 3 -7t-3 -7l-40 -40l40 -40q3 -3 3 -7t-3 -6.5t-7 -2.5t-7 2l-40 41l-40 -41q-3 -2 -7 -2t-6.5 2.5t-2.5 6.5t3 7l40 40l-40 40q-3 3 -3 7t2.5 6.5t6.5 2.5t7 -2l40 -41l40 41q3 2 7 2t7 -2zM38 281q-16 0 -27 -11t-11 -26v-188q0 -15 11 -26t26 -11h133
q18 0 29 13l91 106q4 5 4 12t-4 12l-91 106q-11 13 -29 13h-132zM170 263q9 0 14 -7l91 -106l-91 -106q-5 -6 -14 -7h-132q-8 1 -13.5 6t-5.5 13v188q0 8 5.5 13.5t12.5 5.5h133z" />
    <glyph glyph-name="backspace" unicode="backspace" 
d="M109 204q-2 -3 -2 -7t2 -7l41 -40l-41 -40q-2 -3 -2 -7t2.5 -6.5t6.5 -2.5t7 2l40 41l40 -41q3 -2 7 -2t6.5 2.5t2.5 6.5t-3 7l-40 40l40 40q3 3 3 7t-2.5 6.5t-6.5 2.5t-7 -2l-40 -41l-40 41q-3 2 -7 2t-7 -2zM257 281q15 0 26 -11t11 -26v-188q0 -15 -11 -26t-26 -11
h-133q-17 0 -29 13l-90 106q-5 5 -5 12t5 12l90 106q12 13 29 13h133zM124 263q-9 0 -14 -7l-91 -106l91 -106q5 -6 14 -7h133q7 1 12.5 6t5.5 13v188q0 8 -5.5 13.5t-12.5 5.5h-133z" />
    <glyph glyph-name="badge-3d-fill" unicode="badge&#x2d;&#x33;d&#x2d;fill" 
d="M190 188h-15v-76h15q16 0 23.5 9.5t7.5 28.5q0 38 -31 38zM0 225q0 16 11 27t27 11h225q15 0 26 -11t11 -27v-150q0 -16 -11 -26.5t-27 -10.5h-224q-16 0 -27 10.5t-11 26.5v150zM97 143q9 0 14.5 -4.5t5.5 -12t-5.5 -12.5t-14.5 -5t-14.5 4t-5.5 10h-21q1 -13 11.5 -22
t29 -9t30.5 9t12 24q0 12 -7.5 19t-16.5 8v1q8 1 14.5 8t6.5 19t-10.5 20t-28.5 8t-28 -8.5t-11 -22.5h21q0 6 5 10t12.5 4t12.5 -4t5 -11t-5 -11.5t-12 -4.5h-12v-17h12zM152 94h41q25 0 38 14.5t13 41.5t-12.5 41.5t-38.5 14.5h-41v-112z" />
    <glyph glyph-name="badge-3d" unicode="badge&#x2d;&#x33;d" 
d="M85 143h12q9 0 14.5 -4.5t5.5 -12t-5.5 -12.5t-14.5 -5t-14.5 4t-5.5 10h-21q1 -13 11.5 -22t29 -9t30.5 9t12 24q0 12 -7.5 19t-16.5 8v1q8 1 14.5 8t6.5 19t-10.5 20t-28.5 8t-28 -8.5t-11 -22.5h21q0 6 5 10t12.5 4t12.5 -4t5 -11t-5 -11.5t-12 -4.5h-12v-17zM152 206
v-112h41q25 0 38 14.5t13 41.5t-12.5 41.5t-38.5 14.5h-41zM175 188h15q31 0 31 -38q0 -19 -7.5 -28.5t-23.5 -9.5h-15v76zM263 244q7 0 12.5 -5.5t5.5 -13.5v-150q0 -8 -5.5 -13.5t-12.5 -5.5h-225q-8 0 -13.5 5.5t-5.5 13.5v150q0 8 5.5 13.5t12.5 5.5h226zM38 263
q-16 0 -27 -11t-11 -27v-150q0 -16 11 -27t26 -11h226q15 1 26 11.5t11 26.5v150q0 16 -11 27t-27 11h-224z" />
    <glyph glyph-name="badge-4k-fill" unicode="badge&#x2d;&#x34;k&#x2d;fill" 
d="M67 133v0h34v56h-1q-17 -27 -33 -56zM38 263q-16 0 -27 -11t-11 -27v-150q0 -16 11 -27t26 -11h226q15 1 26 11.5t11 26.5v150q0 16 -11 27t-27 11h-224zM82 193l8 13h32v-73h14v-18h-14v-21h-21v21h-54v18q11 20 35 59v1zM227 206h24l-40 -48l42 -64h-27l-31 49l-12 -13
v-36h-22v112h22v-50h1z" />
    <glyph glyph-name="badge-4k" unicode="badge&#x2d;&#x34;k" 
d="M90 206q-3 -4 -8 -14q-24 -39 -35 -59v-18h54v-21h21v21h14v18h-14v73h-32zM67 133v0q16 29 33 56h1v-56h-34zM251 206h-24l-43 -50h-1v50h-22v-112h22v36l12 13l31 -49h27l-42 64zM263 244q7 0 12.5 -5.5t5.5 -13.5v-150q0 -8 -5.5 -13.5t-12.5 -5.5h-225
q-8 0 -13.5 5.5t-5.5 13.5v150q0 8 5.5 13.5t12.5 5.5h226zM38 263q-16 0 -27 -11t-11 -27v-150q0 -16 11 -27t26 -11h226q15 1 26 11.5t11 26.5v150q0 16 -11 27t-27 11h-224z" />
    <glyph glyph-name="badge-8k-fill" unicode="badge&#x2d;&#x38;k&#x2d;fill" 
d="M73 176q0 -7 5 -11.5t13 -4.5t13 4.5t5 11.5t-5 11.5t-13 4.5t-13 -4.5t-5 -11.5zM70 126q0 -8 6 -13t15 -5t15 5t6 13t-6 13.5t-15 5.5t-15 -5.5t-6 -13.5zM38 263q-16 0 -27 -11t-11 -27v-150q0 -16 11 -27t26 -11h226q15 1 26 11.5t11 26.5v150q0 16 -11 27t-27 11
h-224zM134 125q0 -15 -12 -24t-31.5 -9t-31.5 9t-12 24q0 12 8 20q7 6 16 8v1q-8 2 -13.5 8.5t-5.5 16.5q0 13 10.5 21t28 8t28.5 -8t11 -21q0 -11 -5.5 -17t-13.5 -8v-1q9 -2 15 -8q8 -8 8 -20zM227 206h24l-40 -48l42 -64h-27l-31 49l-12 -13v-36h-22v112h22v-50h1z" />
    <glyph glyph-name="badge-8k" unicode="badge&#x2d;&#x38;k" 
d="M91 92q19 0 31 9t12 24q0 12 -8 20q-6 6 -15 8v1q8 2 13.5 8.5t5.5 16.5q0 13 -11 21t-28.5 8t-28 -8t-10.5 -21q0 -10 5.5 -16.5t13.5 -8.5v-1q-9 -2 -16 -8q-8 -8 -8 -20q0 -15 12 -24t32 -9zM91 160q-8 0 -13 4.5t-5 11.5t5 11.5t13 4.5t13 -4.5t5 -11.5t-5 -11.5
t-13 -4.5zM91 108q-9 0 -15 5t-6 13t6 13.5t15 5.5t15 -5.5t6 -13.5t-6 -13t-15 -5zM251 206h-24l-43 -50h-1v50h-22v-112h22v36l12 13l31 -49h27l-42 64zM263 244q7 0 12.5 -5.5t5.5 -13.5v-150q0 -8 -5.5 -13.5t-12.5 -5.5h-225q-8 0 -13.5 5.5t-5.5 13.5v150
q0 8 5.5 13.5t12.5 5.5h226zM38 263q-16 0 -27 -11t-11 -27v-150q0 -16 11 -27t26 -11h226q15 1 26 11.5t11 26.5v150q0 16 -11 27t-27 11h-224z" />
    <glyph glyph-name="badge-ad-fill" unicode="badge&#x2d;ad&#x2d;fill" 
d="M213 144q0 9 -5.5 15t-13.5 6t-13 -6t-5 -17v-9q0 -11 5 -17t13.5 -6t13.5 6t5 16v12zM111 139l-13 46h-1l-14 -46h28zM38 263q-16 0 -27 -11t-11 -27v-150q0 -16 11 -27t26 -11h226q15 1 26 11.5t11 26.5v150q0 16 -11 27t-27 11h-224zM154 144q0 18 9 28t24 10
q9 0 15.5 -3.5t9.5 -10.5h1v44h22v-118h-22v14h-1q-2 -7 -9 -11t-16 -4q-15 0 -24 10t-9 28v13zM78 123l-9 -29h-22l38 112h26l37 -112h-23l-9 29h-38z" />
    <glyph glyph-name="badge-ad" unicode="badge&#x2d;ad" 
d="M69 94l9 29h38l9 -29h23l-37 112h-26l-38 -112h22zM98 185l13 -46h-28l14 46h1zM187 182q-15 0 -24 -10t-9 -28v-13q0 -18 9 -28t24 -10q9 0 16 4t9 11h1v-14h22v118h-22v-44h-1q-3 7 -9.5 10.5t-15.5 3.5zM194 165q8 0 13.5 -6t5.5 -15v-12q0 -10 -5 -16t-13.5 -6
t-13.5 6t-5 17v9q0 11 5 17t13 6zM263 244q7 0 12.5 -5.5t5.5 -13.5v-150q0 -8 -5.5 -13.5t-12.5 -5.5h-225q-8 0 -13.5 5.5t-5.5 13.5v150q0 8 5.5 13.5t12.5 5.5h226zM38 263q-16 0 -27 -11t-11 -27v-150q0 -16 11 -27t26 -11h226q15 1 26 11.5t11 26.5v150q0 16 -11 27
t-27 11h-224z" />
    <glyph glyph-name="badge-ar-fill" unicode="badge&#x2d;ar&#x2d;fill" 
d="M113 139l-14 46h-1l-13 -46h28zM181 189v-37h20q9 0 14.5 4.5t5.5 13.5t-5.5 14t-14.5 5h-20zM0 225q0 16 11 27t27 11h225q15 0 26 -11t11 -27v-150q0 -16 -11 -26.5t-27 -10.5h-224q-16 0 -27 10.5t-11 26.5v150zM80 123h38l8 -29h24l-38 112h-26l-37 -112h22zM159 206
v-112h22v42h20l20 -42h25l-23 45q9 3 15 11.5t6 20.5q0 16 -10.5 25.5t-29.5 9.5h-45z" />
    <glyph glyph-name="badge-ar" unicode="badge&#x2d;ar" 
d="M71 94l9 29h38l8 -29h24l-38 112h-26l-37 -112h22zM99 185l14 -46h-28l13 46h1zM204 206h-45v-112h22v42h20l20 -42h25l-23 45q9 3 15 11.5t6 20.5q0 16 -10.5 25.5t-29.5 9.5zM181 152v37h20q9 0 14.5 -5t5.5 -14t-5.5 -13.5t-14.5 -4.5h-20zM263 244q7 0 12.5 -5.5
t5.5 -13.5v-150q0 -8 -5.5 -13.5t-12.5 -5.5h-225q-8 0 -13.5 5.5t-5.5 13.5v150q0 8 5.5 13.5t12.5 5.5h226zM38 263q-16 0 -27 -11t-11 -27v-150q0 -16 11 -27t26 -11h226q15 1 26 11.5t11 26.5v150q0 16 -11 27t-27 11h-224z" />
    <glyph glyph-name="badge-cc-fill" unicode="badge&#x2d;cc&#x2d;fill" 
d="M38 263q-16 0 -27 -11t-11 -27v-150q0 -16 11 -27t26 -11h226q15 1 26 11.5t11 26.5v150q0 16 -11 27t-27 11h-224zM94 187q-11 0 -17.5 -8.5t-6.5 -23.5v-14q0 -16 6 -24.5t18 -8.5q10 0 16 5.5t6 14.5h22v-2q-1 -16 -13 -26.5t-31 -10.5q-22 0 -34.5 14t-12.5 38v14
q0 24 12.5 37.5t34.5 13.5q19 0 31 -10.5t13 -26.5v-2h-22q0 9 -6 14.5t-16 5.5zM209 187q-11 0 -17.5 -8.5t-6.5 -23.5v-14q0 -16 6.5 -24.5t17.5 -8.5q10 0 16 5.5t7 14.5h21v-2q-1 -16 -13 -26.5t-31 -10.5q-22 0 -34.5 14t-12.5 38v14q0 24 12.5 37.5t34.5 13.5
q19 0 31 -10.5t13 -26.5v-2h-21q-1 9 -7 14.5t-16 5.5z" />
    <glyph glyph-name="badge-cc" unicode="badge&#x2d;cc" 
d="M70 155q0 15 6.5 23.5t17.5 8.5q10 0 16 -5.5t6 -14.5h22v2q-1 16 -13 26.5t-31 10.5q-22 0 -34.5 -13.5t-12.5 -37.5v-14q0 -24 12.5 -38t34.5 -14q19 0 31 10.5t13 26.5v2h-22q0 -9 -6 -14.5t-16 -5.5q-12 0 -18 8.5t-6 24.5v14zM185 155q0 15 6.5 23.5t17.5 8.5
q10 0 16 -5.5t7 -14.5h21v2q-1 16 -13 26.5t-31 10.5q-22 0 -34.5 -13.5t-12.5 -37.5v-14q0 -24 12.5 -38t34.5 -14q19 0 31 10.5t13 26.5v2h-21q-1 -9 -7 -14.5t-16 -5.5q-11 0 -17.5 8.5t-6.5 24.5v14zM263 244q7 0 12.5 -5.5t5.5 -13.5v-150q0 -8 -5.5 -13.5t-12.5 -5.5
h-225q-8 0 -13.5 5.5t-5.5 13.5v150q0 8 5.5 13.5t12.5 5.5h226zM38 263q-16 0 -27 -11t-11 -27v-150q0 -16 11 -27t26 -11h226q15 1 26 11.5t11 26.5v150q0 16 -11 27t-27 11h-224z" />
    <glyph glyph-name="badge-hd-fill" unicode="badge&#x2d;hd&#x2d;fill" 
d="M197 188h-15v-76h15q16 0 23.5 9.5t7.5 28.5q0 38 -31 38zM38 263q-16 0 -27 -11t-11 -27v-150q0 -16 11 -27t26 -11h226q15 1 26 11.5t11 26.5v150q0 16 -11 27t-27 11h-224zM139 206v-112h-23v48h-47v-48h-22v112h22v-46h47v46h23zM159 94v112h41q26 0 38.5 -14.5
t12.5 -41.5t-12.5 -41.5t-38.5 -14.5h-41z" />
    <glyph glyph-name="badge-hd" unicode="badge&#x2d;hd" 
d="M139 94v112h-23v-46h-47v46h-22v-112h22v48h47v-48h23zM159 206v-112h41q25 0 38 14.5t13 41.5t-12.5 41.5t-38.5 14.5h-41zM182 188h15q31 0 31 -38q0 -19 -7.5 -28.5t-23.5 -9.5h-15v76zM263 244q7 0 12.5 -5.5t5.5 -13.5v-150q0 -8 -5.5 -13.5t-12.5 -5.5h-225
q-8 0 -13.5 5.5t-5.5 13.5v150q0 8 5.5 13.5t12.5 5.5h226zM38 263q-16 0 -27 -11t-11 -27v-150q0 -16 11 -27t26 -11h226q15 1 26 11.5t11 26.5v150q0 16 -11 27t-27 11h-224z" />
    <glyph glyph-name="badge-tm-fill" unicode="badge&#x2d;tm&#x2d;fill" 
d="M38 263q-16 0 -27 -11t-11 -27v-150q0 -16 11 -27t26 -11h226q15 1 26 11.5t11 26.5v150q0 16 -11 27t-27 11h-224zM99 188v-94h-22v94h-32v18h86v-18h-32zM163 169v-75h-20v112h23l32 -73h1l32 73h22v-112h-20v75h-1l-27 -61h-14l-27 61h-1z" />
    <glyph glyph-name="badge-tm" unicode="badge&#x2d;tm" 
d="M99 94v94h32v18h-86v-18h32v-94h22zM163 94v75h1l27 -61h14l27 61h1v-75h20v112h-22l-32 -73h-1l-32 73h-23v-112h20zM263 244q7 0 12.5 -5.5t5.5 -13.5v-150q0 -8 -5.5 -13.5t-12.5 -5.5h-225q-8 0 -13.5 5.5t-5.5 13.5v150q0 8 5.5 13.5t12.5 5.5h226zM38 263
q-16 0 -27 -11t-11 -27v-150q0 -16 11 -27t26 -11h226q15 1 26 11.5t11 26.5v150q0 16 -11 27t-27 11h-224z" />
    <glyph glyph-name="badge-vo-fill" unicode="badge&#x2d;vo&#x2d;fill" 
d="M231 143v14q0 16 -7 24.5t-19 8.5t-19 -8.5t-7 -24.5v-14q0 -16 7 -24.5t19 -8.5t19 8.5t7 24.5zM38 263q-16 0 -27 -11t-11 -27v-150q0 -16 11 -27t26 -11h226q15 1 26 11.5t11 26.5v150q0 16 -11 27t-27 11h-224zM253 157v-14q0 -24 -12.5 -37.5t-35.5 -13.5
t-35.5 13.5t-12.5 37.5v14q0 24 12.5 37.5t35.5 13.5t35.5 -13.5t12.5 -37.5zM111 94h-26l-38 112h26l25 -88h1l25 88h25z" />
    <glyph glyph-name="badge-vo" unicode="badge&#x2d;vo" 
d="M85 94h26l38 112h-25l-25 -88h-1l-25 88h-26zM253 143v14q0 24 -12.5 37.5t-35.5 13.5t-35.5 -13.5t-12.5 -37.5v-14q0 -24 12.5 -37.5t35.5 -13.5t35.5 13.5t12.5 37.5zM231 157v-14q0 -16 -7 -24.5t-19 -8.5t-19 8.5t-7 24.5v14q0 16 7 24.5t19 8.5t19 -8.5t7 -24.5z
M263 244q7 0 12.5 -5.5t5.5 -13.5v-150q0 -8 -5.5 -13.5t-12.5 -5.5h-225q-8 0 -13.5 5.5t-5.5 13.5v150q0 8 5.5 13.5t12.5 5.5h226zM38 263q-16 0 -27 -11t-11 -27v-150q0 -16 11 -27t26 -11h226q15 1 26 11.5t11 26.5v150q0 16 -11 27t-27 11h-224z" />
    <glyph glyph-name="badge-vr-fill" unicode="badge&#x2d;vr&#x2d;fill" 
d="M181 189v-37h20q9 0 14.5 4.5t5.5 13.5t-5.5 14t-14.5 5h-20zM0 225q0 16 11 27t27 11h225q15 0 26 -11t11 -27v-150q0 -16 -11 -26.5t-27 -10.5h-224q-16 0 -27 10.5t-11 26.5v150zM111 94l38 112h-25l-25 -88h-1l-25 88h-26l38 -112h26zM159 206v-112h22v42h20l20 -42
h25l-23 45q9 3 15 11.5t6 20.5q0 16 -10.5 25.5t-29.5 9.5h-45z" />
    <glyph glyph-name="badge-vr" unicode="badge&#x2d;vr" 
d="M263 244q7 0 12.5 -5.5t5.5 -13.5v-150q0 -8 -5.5 -13.5t-12.5 -5.5h-225q-8 0 -13.5 5.5t-5.5 13.5v150q0 8 5.5 13.5t12.5 5.5h226zM38 263q-16 0 -27 -11t-11 -27v-150q0 -16 11 -27t26 -11h226q15 1 26 11.5t11 26.5v150q0 16 -11 27t-27 11h-224zM85 94h26l38 112
h-25l-25 -88h-1l-25 88h-26zM204 206h-45v-112h22v42h20l20 -42h25l-23 45q9 3 15 11.5t6 20.5q0 16 -10.5 25.5t-29.5 9.5zM181 152v37h20q9 0 14.5 -5t5.5 -14t-5.5 -13.5t-14.5 -4.5h-20z" />
    <glyph glyph-name="badge-wc-fill" unicode="badge&#x2d;wc&#x2d;fill" 
d="M0 225q0 16 11 27t27 11h225q15 0 26 -11t11 -27v-150q0 -16 -11 -26.5t-27 -10.5h-224q-16 0 -27 10.5t-11 26.5v150zM219 190q9 0 15 -6t7 -15h22v2q-1 17 -13.5 27t-30.5 10q-23 0 -35.5 -13.5t-12.5 -37.5v-14q0 -24 12.5 -37.5t35.5 -13.5q18 0 30.5 10t13.5 26v2
h-22q-1 -9 -7 -14.5t-15 -5.5q-12 0 -18.5 8.5t-6.5 24.5v14q0 15 6.5 24t18.5 9zM103 172h1l19 -78h19l27 112h-22l-16 -81h-1l-18 81h-18l-18 -81h-1l-15 81h-22l27 -112h19z" />
    <glyph glyph-name="badge-wc" unicode="badge&#x2d;wc" 
d="M194 157q0 15 6.5 24t18.5 9q9 0 15 -6t7 -15h22v2q-1 17 -13.5 27t-30.5 10q-23 0 -35.5 -13.5t-12.5 -37.5v-14q0 -24 12.5 -37.5t35.5 -13.5q18 0 30.5 10t13.5 26v2h-22q-1 -9 -7 -14.5t-15 -5.5q-12 0 -18.5 8.5t-6.5 24.5v14zM84 94l19 78h1l19 -78h19l27 112h-22
l-16 -81h-1l-18 81h-18l-18 -81h-1l-15 81h-22l27 -112h19zM263 244q7 0 12.5 -5.5t5.5 -13.5v-150q0 -8 -5.5 -13.5t-12.5 -5.5h-225q-8 0 -13.5 5.5t-5.5 13.5v150q0 8 5.5 13.5t12.5 5.5h226zM38 263q-16 0 -27 -11t-11 -27v-150q0 -16 11 -27t26 -11h226q15 1 26 11.5
t11 26.5v150q0 16 -11 27t-27 11h-224z" />
    <glyph glyph-name="bag-check-fill" unicode="bag&#x2d;check&#x2d;fill" 
d="M197 234q0 20 -14 33.5t-33 13.5t-33 -13.5t-14 -33.5v-9h94v9zM216 234v-9h65v-187q0 -16 -11 -27t-26 -11h-188q-15 0 -26 11t-11 26v188h65v9q0 18 9 33t24 24t33 9t33 -9t24 -24t9 -33zM204 134q2 3 2 7t-2.5 6.5t-6.5 2.5t-7 -3l-49 -49l-22 21q-3 3 -6.5 3t-6.5 -3
t-3 -6.5t3 -6.5l28 -28q3 -3 7 -3t6 3z" />
    <glyph glyph-name="bag-check" unicode="bag&#x2d;check" 
d="M204 147q2 -2 2 -6t-2 -7l-57 -56q-2 -3 -6 -3t-7 3l-28 28q-3 3 -3 6.5t3 6.5t6.5 3t6.5 -3l22 -21l49 49q3 3 7 3t7 -3zM150 281q19 0 33 -13.5t14 -33.5v-9h-94v9q0 20 14 33.5t33 13.5zM216 225v9q0 18 -9 33t-24 24t-33 9t-33 -9t-24 -24t-9 -33v-9h-65v-187
q0 -16 11 -27t26 -11h188q15 0 26 11t11 27v187h-65zM38 206h225v-168q0 -8 -5.5 -13.5t-13.5 -5.5h-188q-8 0 -13 5.5t-5 13.5v168z" />
    <glyph glyph-name="bag-dash-fill" unicode="bag&#x2d;dash&#x2d;fill" 
d="M197 234q0 20 -14 33.5t-33 13.5t-33 -13.5t-14 -33.5v-9h94v9zM216 234v-9h65v-187q0 -16 -11 -27t-26 -11h-188q-15 0 -26 11t-11 26v188h65v9q0 18 9 33t24 24t33 9t33 -9t24 -24t9 -33zM113 122q-4 0 -7 -3t-3 -6.5t3 -6.5t7 -3h75q3 0 6 3t3 6.5t-3 6.5t-6 3h-75z
" />
    <glyph glyph-name="bag-dash" unicode="bag&#x2d;dash" 
d="M103 113q0 3 3 6t7 3h75q3 0 6 -3t3 -6.5t-3 -6.5t-6 -3h-75q-4 0 -7 3t-3 7zM150 281q19 0 33 -13.5t14 -33.5v-9h-94v9q0 20 14 33.5t33 13.5zM216 225v9q0 18 -9 33t-24 24t-33 9t-33 -9t-24 -24t-9 -33v-9h-65v-187q0 -16 11 -27t26 -11h188q15 0 26 11t11 27v187
h-65zM38 206h225v-168q0 -8 -5.5 -13.5t-13.5 -5.5h-188q-8 0 -13 5.5t-5 13.5v168z" />
    <glyph glyph-name="bag-fill" unicode="bag&#x2d;fill" 
d="M150 281q19 0 33 -13.5t14 -33.5v-9h-94v9q0 20 14 33.5t33 13.5zM216 225v9q0 18 -9 33t-24 24t-33 9t-33 -9t-24 -24t-9 -33v-9h-65v-187q0 -16 11 -27t26 -11h188q15 0 26 11t11 27v187h-65z" />
    <glyph glyph-name="bag-plus-fill" unicode="bag&#x2d;plus&#x2d;fill" 
d="M197 234q0 20 -14 33.5t-33 13.5t-33 -13.5t-14 -33.5v-9h94v9zM216 234v-9h65v-187q0 -16 -11 -27t-26 -11h-188q-15 0 -26 11t-11 26v188h65v9q0 18 9 33t24 24t33 9t33 -9t24 -24t9 -33zM159 150q0 4 -2.5 6.5t-6.5 2.5t-6.5 -2.5t-2.5 -6.5v-28h-28q-4 0 -7 -3
t-3 -6.5t3 -6.5t7 -3h28v-28q0 -4 2.5 -6.5t6.5 -2.5t6.5 2.5t2.5 6.5v28h29q3 0 6 3t3 6.5t-3 6.5t-6 3h-29v28z" />
    <glyph glyph-name="bag-plus" unicode="bag&#x2d;plus" 
d="M150 159q4 0 6.5 -2.5t2.5 -6.5v-28h29q3 0 6 -3t3 -6.5t-3 -6.5t-6 -3h-29v-28q0 -4 -2.5 -6.5t-6.5 -2.5t-6.5 2.5t-2.5 6.5v28h-28q-4 0 -7 3t-3 6.5t3 6.5t7 3h28v28q0 4 2.5 6.5t6.5 2.5zM150 281q19 0 33 -13.5t14 -33.5v-9h-94v9q0 20 14 33.5t33 13.5zM216 225v9
q0 18 -9 33t-24 24t-33 9t-33 -9t-24 -24t-9 -33v-9h-65v-187q0 -16 11 -27t26 -11h188q15 0 26 11t11 27v187h-65zM38 206h225v-168q0 -8 -5.5 -13.5t-13.5 -5.5h-188q-8 0 -13 5.5t-5 13.5v168z" />
    <glyph glyph-name="bag-x-fill" unicode="bag&#x2d;x&#x2d;fill" 
d="M197 234q0 20 -14 33.5t-33 13.5t-33 -13.5t-14 -33.5v-9h94v9zM216 234v-9h65v-187q0 -16 -11 -27t-26 -11h-188q-15 0 -26 11t-11 26v188h65v9q0 18 9 33t24 24t33 9t33 -9t24 -24t9 -33zM129 147q-4 4 -9.5 2.5t-7 -6.5t2.5 -9l22 -21l-22 -22q-3 -3 -3 -7t3 -6.5
t7 -2.5t7 3l21 21l21 -21q3 -3 7 -3t7 2.5t3 6.5t-3 7l-22 22l22 21q3 3 3 7t-3 6.5t-7 2.5t-7 -3l-21 -21z" />
    <glyph glyph-name="bag-x" unicode="bag&#x2d;x" 
d="M115 147q3 3 7 3t7 -3l21 -21l21 21q4 4 9.5 2.5t7 -6.5t-2.5 -9l-22 -21l22 -22q3 -3 3 -7t-3 -6.5t-7 -2.5t-7 3l-21 21l-21 -21q-3 -3 -7 -3t-7 2.5t-3 6.5t3 7l22 22l-22 21q-3 3 -3 7t3 6zM150 281q19 0 33 -13.5t14 -33.5v-9h-94v9q0 20 14 33.5t33 13.5zM216 225
v9q0 18 -9 33t-24 24t-33 9t-33 -9t-24 -24t-9 -33v-9h-65v-187q0 -16 11 -27t26 -11h188q15 0 26 11t11 27v187h-65zM38 206h225v-168q0 -8 -5.5 -13.5t-13.5 -5.5h-188q-8 0 -13 5.5t-5 13.5v168z" />
    <glyph glyph-name="bag" unicode="bag" 
d="M150 281q19 0 33 -13.5t14 -33.5v-9h-94v9q0 20 14 33.5t33 13.5zM216 225v9q0 18 -9 33t-24 24t-33 9t-33 -9t-24 -24t-9 -33v-9h-65v-187q0 -16 11 -27t26 -11h188q15 0 26 11t11 27v187h-65zM38 206h225v-168q0 -8 -5.5 -13.5t-13.5 -5.5h-188q-8 0 -13 5.5t-5 13.5
v168z" />
    <glyph glyph-name="bar-chart-fill" unicode="bar&#x2d;chart&#x2d;fill" 
d="M19 94q0 8 5.5 13.5t12.5 5.5h38q8 -1 13.5 -6t5.5 -13v-56q0 -8 -5.5 -13.5t-13.5 -5.5h-37q-8 0 -13.5 5.5t-5.5 13.5v56zM113 169q-1 8 4.5 13.5t13.5 5.5h38q8 0 13.5 -5.5t5.5 -13.5v-131q0 -8 -5.5 -13.5t-13.5 -5.5h-38q-8 0 -13 5.5t-5 13.5v131zM206 263
q0 7 5.5 12.5t13.5 5.5h38q7 0 12.5 -5.5t5.5 -12.5v-225q0 -8 -5.5 -13.5t-12.5 -5.5h-38q-8 0 -13.5 5.5t-5.5 13.5v225z" />
    <glyph glyph-name="bar-chart-line-fill" unicode="bar&#x2d;chart&#x2d;line&#x2d;fill" 
d="M206 263q0 7 5.5 12.5t13.5 5.5h38q7 0 12.5 -5.5t5.5 -12.5v-225h10q4 0 6.5 -3t2.5 -7t-2.5 -6.5t-6.5 -2.5h-282q-4 0 -6.5 2.5t-2.5 6.5t2.5 6.5t6.5 3.5h10v56q0 8 5.5 13.5t12.5 5.5h38q8 -1 13.5 -6t5.5 -13v-56h19v131q-1 8 4.5 13.5t13.5 5.5h38q8 0 13.5 -5.5
t5.5 -13.5v-131h18v225z" />
    <glyph glyph-name="bar-chart-line" unicode="bar&#x2d;chart&#x2d;line" 
d="M206 263q0 7 5.5 12.5t13.5 5.5h38q7 0 12.5 -5.5t5.5 -12.5v-225h10q4 0 6.5 -3t2.5 -7t-2.5 -6.5t-6.5 -2.5h-282q-4 0 -6.5 2.5t-2.5 6.5t2.5 6.5t6.5 3.5h10v56q0 8 5.5 13.5t12.5 5.5h38q8 -1 13.5 -6t5.5 -13v-56h19v131q-1 8 4.5 13.5t13.5 5.5h38q8 0 13.5 -5.5
t5.5 -13.5v-131h18v225zM225 38h38v225h-38v-225zM169 38v131h-38v-131h38zM75 38v56h-37v-56h37z" />
    <glyph glyph-name="bar-chart-steps" unicode="bar&#x2d;chart&#x2d;steps" 
d="M9 300q4 0 7 -2.5t3 -6.5v-282q0 -4 -3 -6.5t-7 -2.5t-6.5 2.5t-2.5 6.5v282q0 4 2.5 6.5t6.5 2.5zM38 272q0 4 2.5 6.5t6.5 2.5h75q4 0 6.5 -2.5t2.5 -6.5v-19q0 -4 -2.5 -6.5t-6.5 -2.5h-75q-4 0 -6.5 2.5t-2.5 6.5v19zM75 197q0 4 2.5 6.5t6.5 2.5h132q4 0 6.5 -2.5
t2.5 -6.5v-19q0 -4 -2.5 -6.5t-6.5 -2.5h-132q-4 0 -6.5 2.5t-2.5 6.5v19zM113 122q-1 4 2 6.5t7 2.5h112q4 0 7 -2.5t3 -6.5v-19q0 -4 -3 -6.5t-7 -2.5h-112q-4 0 -7 2.5t-3 6.5v19h1zM150 47q0 4 2.5 6.5t6.5 2.5h132q4 0 6.5 -2.5t2.5 -6.5v-19q0 -4 -2.5 -6.5t-6.5 -2.5
h-132q-4 0 -6.5 2.5t-2.5 6.5v19z" />
    <glyph glyph-name="bar-chart" unicode="bar&#x2d;chart" 
d="M75 94h-37v-56h37v56zM169 169h-38v-131h38v131zM263 263v-225h-38v225h38zM225 281q-8 0 -13.5 -5.5t-5.5 -12.5v-225q0 -8 5.5 -13.5t13.5 -5.5h38q7 0 12.5 5.5t5.5 13.5v225q0 7 -5.5 12.5t-12.5 5.5h-38zM113 169q-1 8 4.5 13.5t13.5 5.5h38q8 0 13.5 -5.5
t5.5 -13.5v-131q0 -8 -5.5 -13.5t-13.5 -5.5h-38q-8 0 -13 5.5t-5 13.5v131zM19 94q0 8 5.5 13.5t12.5 5.5h38q8 -1 13.5 -6t5.5 -13v-56q0 -8 -5.5 -13.5t-13.5 -5.5h-37q-8 0 -13.5 5.5t-5.5 13.5v56z" />
    <glyph glyph-name="basket-fill" unicode="basket&#x2d;fill" 
d="M95 277q2 3 6 4t7 -1t4 -6t-1 -7l-48 -79h174l-48 79q-2 3 -1 7t4 6t7 1t6 -4l53 -89h33q4 0 6.5 -3t2.5 -7v-37q0 -4 -2.5 -7t-6.5 -3h-10v-93q0 -16 -11 -27t-26 -11h-188q-15 0 -26 11t-11 26v94h-10q-4 0 -6.5 3t-2.5 7v37q0 4 2.5 7t6.5 3h33zM66 103q0 4 -3 7
t-7 2.5t-6.5 -3t-2.5 -6.5v-56q0 -4 2.5 -6.5t6.5 -2.5t7 2.5t3 6.5v56zM113 103q-1 4 -3.5 7t-6.5 2.5t-6.5 -3t-2.5 -6.5v-56q0 -4 2.5 -6.5t6.5 -2.5t7 2.5t3 6.5v56zM159 103q0 4 -2.5 7t-6.5 2.5t-6.5 -3t-2.5 -6.5v-56q0 -4 2.5 -6.5t6.5 -2.5t6.5 2.5t2.5 6.5v56z
M206 103q0 4 -2.5 7t-6.5 2.5t-7 -3t-3 -6.5v-56q1 -4 3.5 -6.5t6.5 -2.5t6.5 2.5t2.5 6.5v56zM253 103q0 4 -2.5 7t-6.5 2.5t-7 -3t-3 -6.5v-56q0 -4 3 -6.5t7 -2.5t6.5 2.5t2.5 6.5v56z" />
    <glyph glyph-name="basket" unicode="basket" 
d="M108 280q3 -2 4 -6t-1 -7l-48 -79h174l-48 79q-2 3 -1 7t4 6t7 1t6 -4l53 -89h23q8 0 13.5 -5.5t5.5 -13.5v-19q0 -8 -5.5 -13.5t-13.5 -5.5v-84q0 -20 -13.5 -33.5t-33.5 -13.5h-168q-20 0 -33.5 13.5t-13.5 33.5v84q-8 0 -13.5 5.5t-5.5 13.5v19q0 8 5.5 13.5t13.5 5.5
h23l53 89q2 3 6 4t7 -1zM38 131v-84q0 -12 8 -20t20 -8h168q12 0 20.5 8t7.5 20v84h-224zM19 169v-19h262v19h-262zM75 113q4 -1 6.5 -3.5t2.5 -6.5v-56q0 -4 -2.5 -6.5t-6.5 -2.5t-6.5 2.5t-2.5 6.5v56q0 4 2.5 7t6.5 3zM113 113q3 -1 6 -3.5t3 -6.5v-56q0 -4 -3 -6.5
t-6.5 -2.5t-6.5 2.5t-3 6.5v56q0 4 3 7t7 3zM150 113q4 -1 6.5 -3.5t2.5 -6.5v-56q0 -4 -2.5 -6.5t-6.5 -2.5t-6.5 2.5t-2.5 6.5v56q0 4 2.5 7t6.5 3zM188 113q3 -1 6 -3.5t3 -6.5v-56q0 -4 -3 -6.5t-6.5 -2.5t-6.5 2.5t-3 6.5v56q0 4 3 7t6 3h1zM225 113q4 -1 6.5 -3.5
t2.5 -6.5v-56q0 -4 -2.5 -6.5t-6.5 -2.5t-6.5 2.5t-2.5 6.5v56q0 4 2.5 7t6.5 3z" />
    <glyph glyph-name="basket2-fill" unicode="basket&#x32;&#x2d;fill" 
d="M111 267q2 3 1 7t-4 6t-7 1t-6 -4l-53 -89h-33q-4 0 -6.5 -3t-2.5 -7v-19q0 -4 2.5 -6.5t6.5 -2.5h12l35 -121q1 -5 4.5 -7.5t8.5 -2.5h162q5 0 8.5 2.5t4.5 7.5l35 121h12q4 0 6.5 2.5t2.5 6.5v19q0 4 -2.5 7t-6.5 3h-33l-53 89q-2 3 -6 4t-7 -1t-4 -6t1 -7l48 -79h-174
zM75 113q0 7 5.5 12.5t13.5 5.5t13 -5.5t6 -13.5v-37q-1 -8 -6 -13.5t-13 -5.5t-13.5 5.5t-5.5 13.5v38zM131 113q0 7 5.5 12.5t13.5 5.5t13.5 -5.5t5.5 -13.5v-37q0 -8 -5.5 -13.5t-13.5 -5.5t-13.5 5.5t-5.5 13.5v38zM206 131q8 0 13.5 -5.5t5.5 -13.5v-37
q0 -8 -5.5 -13.5t-13.5 -5.5t-13.5 5.5t-5.5 13.5v38q1 7 6 12.5t13 5.5z" />
    <glyph glyph-name="basket2" unicode="basket&#x32;" 
d="M75 113q0 7 5.5 12.5t13.5 5.5t13 -5.5t6 -13.5v-37q-1 -8 -6 -13.5t-13 -5.5t-13.5 5.5t-5.5 13.5v38zM131 113q0 7 5.5 12.5t13.5 5.5t13.5 -5.5t5.5 -13.5v-37q0 -8 -5.5 -13.5t-13.5 -5.5t-13.5 5.5t-5.5 13.5v38zM188 113q0 7 5 12.5t13 5.5t13.5 -5.5t5.5 -13.5
v-37q0 -8 -5.5 -13.5t-13.5 -5.5t-13.5 5.5t-5.5 13.5v38h1zM108 280q3 -2 4 -6t-1 -7l-48 -79h174l-48 79q-2 3 -1 7t4 6t7 1t6 -4l53 -89h33q4 0 6.5 -3t2.5 -7v-19q0 -4 -2.5 -6.5t-6.5 -2.5h-12l-35 -121q-1 -5 -4.5 -7.5t-8.5 -2.5h-162q-5 0 -8.5 2.5t-4.5 7.5
l-35 121h-12q-4 0 -6.5 2.5t-2.5 6.5v19q0 4 2.5 7t6.5 3h33l53 89q2 3 6 4t7 -1zM41 150l32 -112h154l32 112h-218z" />
    <glyph glyph-name="basket3-fill" unicode="basket&#x33;&#x2d;fill" 
d="M108 280q3 -2 4 -6t-1 -7l-48 -79h174l-48 79q-2 3 -1 7t4 6t7 1t6 -4l53 -89h33q4 0 6.5 -3t2.5 -7v-19q0 -4 -2.5 -6.5t-6.5 -2.5h-282q-4 0 -6.5 2.5t-2.5 6.5v19q0 4 2.5 7t6.5 3h33l53 89q2 3 6 4t7 -1zM46 11l-28 120h264l-28 -120q-1 -5 -5 -8t-9 -3h-180
q-5 0 -9 3t-5 8z" />
    <glyph glyph-name="basket3" unicode="basket&#x33;" 
d="M108 280q3 -2 4 -6t-1 -7l-48 -79h174l-48 79q-2 3 -1 7t4 6t7 1t6 -4l53 -89h33q4 0 6.5 -3t2.5 -7v-19q0 -4 -2.5 -6.5t-6.5 -2.5h-282q-4 0 -6.5 2.5t-2.5 6.5v19q0 4 2.5 7t6.5 3h33l53 89q2 3 6 4t7 -1zM64 19l-28 112h-18l28 -120q1 -5 5 -8t9 -3h180q5 0 9 3t5 8
l28 120h-18l-28 -112h-172z" />
    <glyph glyph-name="battery-charging" unicode="battery&#x2d;charging" 
d="M180 252q3 -2 4 -5t0 -6l-21 -69h37q6 0 8.5 -5.5t-1.5 -10.5l-100 -106q-2 -3 -5.5 -3t-6.5 1.5t-4 4.5t0 6l21 69h-37q-6 0 -8.5 5.5t1.5 10.5l100 106q2 3 5.5 3.5t6.5 -1.5zM38 225h81l-18 -19h-63q-8 0 -13.5 -5.5t-5.5 -13.5v-74q0 -8 5.5 -13.5t13.5 -5.5h44
l-6 -19h-38q-16 0 -27 11t-11 27v75q0 15 11 26t27 11zM38 188h45l-28 -31q-10 -10 -7.5 -24t14.5 -20h-24v75zM199 225l-6 -19h32q8 0 13.5 -5.5t5.5 -13.5v-74q0 -8 -5.5 -13.5t-13.5 -5.5h-51l-18 -19h69q16 0 27 11t11 27v75q0 15 -11 26t-27 11h-26zM225 113h-33l28 30
q3 3 5 7v-37zM225 175v13h-12q8 -5 12 -13zM300 150q0 -12 -8 -20t-20 -8v56q12 0 20 -8t8 -20z" />
    <glyph glyph-name="battery-full" unicode="battery&#x2d;full" 
d="M38 188h187v-75h-187v75zM38 225q-16 0 -27 -11t-11 -27v-74q0 -16 11 -27t26 -11h188q16 0 27 11t11 27v75q0 15 -11 26t-27 11h-187zM225 206q8 0 13.5 -5.5t5.5 -13.5v-74q0 -8 -5.5 -13.5t-13.5 -5.5h-187q-8 0 -13.5 5.5t-5.5 13.5v75q0 7 5.5 12.5t12.5 5.5h188z
M300 150q0 -12 -8 -20t-20 -8v56q12 0 20 -8t8 -20z" />
    <glyph glyph-name="battery-half" unicode="battery&#x2d;half" 
d="M38 188h93v-75h-93v75zM38 225q-16 0 -27 -11t-11 -27v-74q0 -16 11 -27t26 -11h188q16 0 27 11t11 27v75q0 15 -11 26t-27 11h-187zM225 206q8 0 13.5 -5.5t5.5 -13.5v-74q0 -8 -5.5 -13.5t-13.5 -5.5h-187q-8 0 -13.5 5.5t-5.5 13.5v75q0 7 5.5 12.5t12.5 5.5h188z
M300 150q0 -12 -8 -20t-20 -8v56q12 0 20 -8t8 -20z" />
    <glyph glyph-name="battery" unicode="battery" 
d="M0 188q0 15 11 26t27 11h187q16 0 27 -11t11 -27v-74q0 -16 -11 -27t-27 -11h-187q-16 0 -27 11t-11 27v75zM38 206q-8 0 -13.5 -5.5t-5.5 -13.5v-74q0 -8 5.5 -13.5t13.5 -5.5h187q8 0 13.5 5.5t5.5 13.5v75q0 7 -5.5 12.5t-13.5 5.5h-187zM300 150q0 -12 -8 -20t-20 -8
v56q12 0 20 -8t8 -20z" />
    <glyph glyph-name="bell-fill" unicode="bell&#x2d;fill" 
d="M150 0q16 0 27 11t11 27h-75q0 -16 10.5 -27t26.5 -11zM169 279q0 6 -2.5 10.5t-7 7.5t-9.5 3t-9.5 -3t-7 -7.5t-2.5 -10.5q-32 -6 -53.5 -32t-21.5 -60q0 -14 -3 -39q-5 -31 -12 -54q-10 -29 -22 -38h262q-12 9 -22 38q-7 23 -12 54q-3 25 -3 40q0 33 -21.5 59t-53.5 32
z" />
    <glyph glyph-name="bell" unicode="bell" 
d="M150 0q16 0 27 11t11 27h-75q0 -16 10.5 -27t26.5 -11zM150 264l-15 -3q-26 -5 -43 -26t-17 -47q0 -11 -2 -29q-2 -22 -7 -42q-5 -25 -12 -42h192q-7 17 -12 42q-5 20 -7 42q-2 18 -2 28q0 27 -17 48t-43 26zM267 75q6 -13 14 -19h-262q8 6 14 19q11 22 18 63q5 31 5 50
q0 33 21.5 59t53.5 32q0 6 2.5 10.5t7 7.5t9.5 3t9.5 -3t7 -7.5t2.5 -10.5q32 -6 53.5 -32t21.5 -60q0 -18 5 -49q7 -41 18 -63z" />
    <glyph glyph-name="bezier" unicode="bezier" 
d="M0 103q0 12 8 20t20 8h19q12 0 20 -8t8 -20v-19q0 -11 -8 -19.5t-20 -8.5h-19q-12 0 -20 8.5t-8 19.5v19zM28 113q-4 -1 -6.5 -3.5t-2.5 -6.5v-19q0 -4 2.5 -6.5t6.5 -2.5h19q4 0 6.5 2.5t2.5 6.5v19q0 4 -2.5 7t-6.5 3h-19zM225 103q0 12 8 20t20 8h19q12 0 20 -8t8 -20
v-19q0 -11 -8 -19.5t-20 -8.5h-19q-12 0 -20 8.5t-8 19.5v19zM253 113q-4 -1 -6.5 -3.5t-2.5 -6.5v-19q0 -4 2.5 -6.5t6.5 -2.5h19q4 0 6.5 2.5t2.5 6.5v19q0 4 -2.5 7t-6.5 3h-19zM113 216q0 11 8 19.5t20 8.5h18q12 0 20.5 -8.5t7.5 -19.5v-19q0 -12 -8 -20t-20 -8h-18
q-12 0 -20 8t-8 20v19zM141 225q-4 0 -7 -2.5t-3 -6.5v-19q0 -4 3 -7t7 -3h18q4 1 7 3.5t3 6.5v19q0 4 -3 6.5t-7 2.5h-18zM113 216h-78q-3 5 -9 7.5t-12 1t-10 -6.5t-4 -11.5t4 -11.5t10 -7t12 0.5t9 8.5h50q-18 -12 -31 -28.5t-20 -37.5h13q3 0 7 -1q7 21 23 36.5t36 23.5
q-1 3 0 7v19zM187 190q1 3 1 7v19h77q3 5 9 7.5t12 1t10 -6.5t4 -11.5t-4 -11.5t-10 -7t-12 0.5t-9 8.5h-50q18 -12 31 -28.5t20 -37.5h-13q-3 0 -7 -1q-7 21 -23 36.5t-36 23.5z" />
    <glyph glyph-name="bezier2" unicode="bezier&#x32;" 
d="M19 253q0 12 8 20t20 8h19q11 0 19.5 -8t8.5 -20h77q3 6 9 8.5t12.5 0.5t10 -7t3.5 -11.5t-3.5 -11.5t-10 -6.5t-12.5 1t-9 7.5h-37q5 -5 9 -11q16 -26 16 -73q0 -52 14 -69q9 -13 33 -15q0 11 8.5 19.5t19.5 8.5h19q12 0 20 -8.5t8 -19.5v-19q0 -12 -8 -20t-20 -8h-19
q-11 0 -19.5 8t-8.5 20h-77q-3 -6 -9 -8.5t-12.5 -0.5t-10 7t-3.5 11.5t3.5 11.5t10 6.5t12.5 -1t9 -7.5h32l-3 3q-9 13 -13 32.5t-4 48.5q0 42 -14 63q-12 18 -33 21q-1 -12 -9 -20t-19 -8h-19q-12 0 -20 8.5t-8 19.5v19zM47 263q-4 0 -6.5 -3t-2.5 -7v-19q0 -4 2.5 -6.5
t6.5 -2.5h19q4 0 6.5 2.5t2.5 6.5v19q0 4 -2.5 7t-6.5 3h-19zM234 75q-4 0 -6.5 -2.5t-2.5 -6.5v-19q0 -4 2.5 -6.5t6.5 -2.5h19q4 0 7 2.5t3 6.5v19q0 4 -3 6.5t-7 2.5h-19z" />
    <glyph glyph-name="bicycle" unicode="bicycle" 
d="M75 216q0 4 2.5 6.5t6.5 2.5h29q3 0 6 -2.5t3 -6.5t-3 -7t-7 -3v-9h78l7 22q1 2 3.5 4t5.5 2h19q4 0 6.5 -2.5t2.5 -6.5t-2.5 -7t-6.5 -3h-12l-6 -17l15 -24q21 8 41.5 0.5t30.5 -27t4 -41t-24.5 -33t-40 -7.5t-34.5 21.5t-11 39.5t18 37l-9 15l-39 -62q-3 -5 -8 -5h-38
q-3 -18 -16 -30.5t-30.5 -15.5t-33.5 5t-25 23.5t-7 33.5t14 31t29.5 17t34.5 -2l16 25v16h-10q-4 0 -6.5 3t-2.5 7zM103 170l-9 -15q14 -14 18 -33h21zM150 130l30 48h-60zM93 122q-3 9 -10 16l-10 -16h20zM68 148q-11 4 -22 0.5t-18.5 -12.5t-8.5 -20.5t4.5 -21.5t16 -15
t21.5 -3.5t20 9t12 18.5h-37q-5 0 -8 5t0 9zM217 138q-10 -10 -10.5 -24t8.5 -25t23 -13.5t26 5t16 21t-2 26.5t-19 19t-27 1l20 -31q3 -4 0 -9t-8 -5t-8 5z" />
    <glyph glyph-name="binoculars-fill" unicode="binoculars&#x2d;fill" 
d="M84 281q-11 0 -19.5 -8t-8.5 -20v-9h75v9q0 12 -8 20t-20 8h-19zM131 225v-19h38v19h75v-17q0 -5 5 -8l17 -8q7 -4 11 -10.5t4 -14.5v-111h-112v28q0 4 2 7l17 16v15q0 4 -3 6.5t-7 2.5h-56q-4 0 -7 -2.5t-3 -6.5v-15l17 -16q2 -3 2 -7v-28h-112v111q0 8 4 14.5t11 10.5
l17 8q5 3 5 8v17h75zM19 38v-10q0 -12 8 -20t20 -8h56q12 0 20 8t8 20v10h-112zM169 38v-10q0 -12 8 -20t20 -8h56q12 0 20 8t8 20v10h-112zM244 244h-75v9q0 12 8 20t20 8h19q11 0 19.5 -8t8.5 -20v-9z" />
    <glyph glyph-name="binoculars" unicode="binoculars" 
d="M56 253q0 12 8.5 20t19.5 8h19q12 0 20 -8t8 -20v-47h38v47q0 12 8 20t20 8h19q11 0 19.5 -8t8.5 -20v-45q0 -5 5 -8l17 -8q7 -4 11 -10.5t4 -14.5v-139q0 -12 -8 -20t-20 -8h-56q-12 0 -20 8t-8 20v56q0 4 2 7l17 16v15q0 4 -3 6.5t-7 2.5h-56q-4 0 -7 -2.5t-3 -6.5v-15
l17 -16q2 -3 2 -7v-56q0 -12 -8 -20t-20 -8h-56q-12 0 -20 8t-8 20v139q0 8 4 14.5t11 10.5l17 8q5 3 5 8v45zM84 263q-4 0 -6.5 -3t-2.5 -7v-9h38v9q0 4 -3 7t-7 3h-19zM113 225h-38v-17q0 -8 -4 -14.5t-12 -10.5l-16 -8q-5 -3 -6 -8v-111h76v24l-17 16q-2 3 -2 7v19
q0 12 8 20t20 8h56q12 0 20 -8t8 -20v-19q0 -4 -2 -7l-16 -16v-24h75v111q-1 5 -6 8l-16 8q-8 4 -12 10.5t-4 14.5v17h-37v-28q0 -4 -3 -7t-7 -3h-56q-4 1 -7 3.5t-3 6.5v28h1zM188 244h37v9q0 4 -2.5 7t-6.5 3h-19q-4 0 -6.5 -3t-3.5 -7v-9h1zM263 38h-75v-10
q0 -4 2.5 -6.5t6.5 -2.5h56q4 0 7 2.5t3 6.5v10zM113 38h-75v-10q0 -4 2.5 -6.5t6.5 -2.5h56q4 0 7 2.5t3 6.5v10z" />
    <glyph glyph-name="blockquote-left" unicode="blockquote&#x2d;left" 
d="M47 244q-4 0 -6.5 -3t-2.5 -7t2.5 -6.5t6.5 -2.5h206q4 0 7 2.5t3 6.5t-3 7t-7 3h-206zM141 188q-4 0 -7 -3t-3 -7t3 -6.5t7 -2.5h112q4 0 7 2.5t3 6.5t-3 7t-7 3h-112zM141 131q-4 0 -7 -2.5t-3 -6.5t3 -6.5t7 -3.5h112q4 1 7 3.5t3 6.5t-3 6.5t-7 2.5h-112zM47 75
q-4 0 -6.5 -2.5t-2.5 -6.5t2.5 -7t6.5 -3h206q4 0 7 3t3 7t-3 6.5t-7 2.5h-206zM62 176q3 2 8 5l-4 7l-8 -6q-5 -3 -9.5 -8t-8 -10.5t-2.5 -12.5q-1 -11 3.5 -17t13.5 -6q6 0 9.5 4t3.5 9.5t-4 9t-11 3.5h-5q1 6 2.5 9.5t4.5 6.5t7 6zM102 176q3 2 9 5l-4 7l-9 -6
q-5 -3 -9.5 -8t-7.5 -10.5t-3 -12.5q0 -11 4 -17t14 -6q6 0 9.5 4t3.5 9.5t-4 9t-11 3.5h-5q0 5 2 9t5 7z" />
    <glyph glyph-name="blockquote-right" unicode="blockquote&#x2d;right" 
d="M47 244q-4 0 -6.5 -3t-2.5 -7t2.5 -6.5t6.5 -2.5h206q4 0 7 2.5t3 6.5t-3 7t-7 3h-206zM47 188q-4 0 -6.5 -3t-2.5 -7t2.5 -6.5t6.5 -2.5h112q4 0 7 2.5t3 6.5t-3 7t-7 3h-112zM47 131q-4 0 -6.5 -2.5t-2.5 -6.5t2.5 -7t6.5 -3h112q4 0 7 3t3 7t-3 6.5t-7 2.5h-112z
M47 75q-4 0 -6.5 -2.5t-2.5 -6.5t2.5 -7t6.5 -3h206q4 0 7 3t3 7t-3 6.5t-7 2.5h-206zM236 176q-4 2 -8 5l4 7l9 -6q5 -3 9.5 -8t7.5 -10.5t3 -12.5q0 -11 -4 -17t-14 -6q-6 0 -9.5 4t-3.5 9.5t4 9t11 3.5h5q0 5 -2 9t-5 7t-7 6zM196 176q-4 2 -9 5l4 7l9 -6q5 -3 9.5 -8
t7.5 -10.5t3 -12.5q0 -11 -4 -17t-14 -6q-6 0 -9 4t-3.5 9.5t3.5 9t11 3.5h5q0 5 -2 9t-5 7z" />
    <glyph glyph-name="book-fill" unicode="book&#x2d;fill" 
d="M150 267q-24 20 -70 15q-19 -2 -41 -8q-18 -5 -34 -12q-5 -3 -5 -9v-206q0 -5 4.5 -8t8.5 -1q15 7 31 12q20 6 38 7q44 5 61 -16q3 -3 7 -3t7 3q17 21 61 16q18 -1 38 -7q17 -5 31 -12q4 -2 8.5 1t4.5 8v206q0 6 -5 9q-16 7 -34 12q-22 6 -41 8q-46 5 -70 -15z" />
    <glyph glyph-name="book-half" unicode="book&#x2d;half" 
d="M159 250q18 18 59 14q31 -3 63 -17v-186q-32 12 -61 15q-38 4 -61 -9v183zM150 267q-24 20 -70 15q-19 -2 -41 -8q-18 -5 -34 -12q-5 -3 -5 -9v-206q0 -5 4.5 -8t8.5 -1q15 7 31 12q20 6 38 7q44 5 61 -16q3 -3 7 -3t7 3q17 21 61 16q18 -1 38 -7q17 -5 31 -12
q4 -2 8.5 1t4.5 8v206q0 6 -5 9q-16 7 -34 12q-22 6 -41 8q-46 5 -70 -15z" />
    <glyph glyph-name="book" unicode="book" 
d="M19 247q32 14 63 17q41 4 59 -14v-183q-23 13 -61 9q-29 -3 -61 -15v186zM159 250q18 18 59 14q31 -3 63 -17v-186q-32 12 -61 15q-38 4 -61 -9v183zM150 267q-24 20 -70 15q-19 -2 -41 -8q-18 -5 -34 -12q-5 -3 -5 -9v-206q0 -5 4.5 -8t8.5 -1q15 7 31 12q20 6 38 7
q44 5 61 -16q3 -3 7 -3t7 3q17 21 61 16q18 -1 38 -7q17 -5 31 -12q4 -2 8.5 1t4.5 8v206q0 6 -5 9q-16 7 -34 12q-22 6 -41 8q-46 5 -70 -15z" />
    <glyph glyph-name="bookmark-check-fill" unicode="bookmark&#x2d;check&#x2d;fill" 
d="M38 9v254q0 15 10.5 26t26.5 11h150q16 0 27 -11t11 -27v-253q0 -5 -5 -7.5t-9 -0.5l-99 54l-99 -54q-4 -2 -9 0.5t-4 7.5zM204 190q2 3 2 7t-2.5 6.5t-6.5 2.5t-7 -2l-49 -50l-22 21q-3 3 -6.5 3t-6.5 -2.5t-3 -6.5t3 -7l28 -28q3 -3 7 -3t6 3z" />
    <glyph glyph-name="bookmark-check" unicode="bookmark&#x2d;check" 
d="M204 204q2 -3 2 -7t-2 -7l-57 -56q-2 -3 -6 -3t-7 3l-28 28q-3 3 -3 7t3 6.5t6.5 2.5t6.5 -3l22 -21l49 50q3 2 7 2t7 -2zM38 263q0 15 10.5 26t26.5 11h150q16 0 27 -11t11 -27v-253q-1 -5 -5.5 -8t-9.5 1l-98 52l-98 -52q-5 -4 -9.5 -1t-4.5 8v254zM75 281
q-8 0 -13.5 -5.5t-5.5 -12.5v-236l89 46q5 4 10 0l89 -46v236q0 7 -5.5 12.5t-13.5 5.5h-150z" />
    <glyph glyph-name="bookmark-dash-fill" unicode="bookmark&#x2d;dash&#x2d;fill" 
d="M38 9v254q0 15 10.5 26t26.5 11h150q16 0 27 -11t11 -27v-253q0 -5 -5 -7.5t-9 -0.5l-99 54l-99 -54q-4 -2 -9 0.5t-4 7.5zM113 188q-4 0 -7 -3t-3 -7t3 -6.5t7 -2.5h75q3 0 6 2.5t3 6.5t-3 7t-6 3h-75z" />
    <glyph glyph-name="bookmark-dash" unicode="bookmark&#x2d;dash" 
d="M103 178q0 4 3 7t7 3h75q3 0 6 -3t3 -7t-3 -6.5t-6 -2.5h-75q-4 0 -7 2.5t-3 6.5zM38 263q0 15 10.5 26t26.5 11h150q16 0 27 -11t11 -27v-253q-1 -5 -5.5 -8t-9.5 1l-98 52l-98 -52q-5 -4 -9.5 -1t-4.5 8v254zM75 281q-8 0 -13.5 -5.5t-5.5 -12.5v-236l89 46q5 4 10 0
l89 -46v236q0 7 -5.5 12.5t-13.5 5.5h-150z" />
    <glyph glyph-name="bookmark-fill" unicode="bookmark&#x2d;fill" 
d="M38 263v-254q-1 -5 4 -7.5t9 -0.5l99 54l99 -54q4 -2 9 0.5t5 7.5v254q0 15 -11 26t-27 11h-150q-16 0 -27 -11t-11 -27z" />
    <glyph glyph-name="bookmark-heart-fill" unicode="bookmark&#x2d;heart&#x2d;fill" 
d="M38 9q-1 -5 4 -7.5t9 -0.5l99 54l99 -54q4 -2 9 0.5t5 7.5v254q0 15 -11 26t-27 11h-150q-16 0 -27 -11t-11 -27v-253h1zM150 217q10 10 24 7.5t20.5 -15.5t-2.5 -30q-11 -21 -42 -42q-31 21 -42 42q-9 17 -2.5 30t20.5 15.5t24 -7.5z" />
    <glyph glyph-name="bookmark-heart" unicode="bookmark&#x2d;heart" 
d="M150 217q10 10 24 7.5t20.5 -15.5t-2.5 -30q-11 -21 -42 -42q-31 21 -42 42q-9 17 -2.5 30t20.5 15.5t24 -7.5zM38 263q0 15 10.5 26t26.5 11h150q16 0 27 -11t11 -27v-253q-1 -5 -5.5 -8t-9.5 1l-98 52l-98 -52q-5 -4 -9.5 -1t-4.5 8v254zM75 281q-8 0 -13.5 -5.5
t-5.5 -12.5v-236l89 46q5 4 10 0l89 -46v236q0 7 -5.5 12.5t-13.5 5.5h-150z" />
    <glyph glyph-name="bookmark-plus-fill" unicode="bookmark&#x2d;plus&#x2d;fill" 
d="M38 9v254q0 15 10.5 26t26.5 11h150q16 0 27 -11t11 -27v-253q0 -5 -5 -7.5t-9 -0.5l-99 54l-99 -54q-4 -2 -9 0.5t-4 7.5zM159 216q0 4 -2.5 6.5t-6.5 2.5t-6.5 -2.5t-2.5 -6.5v-28h-28q-4 0 -7 -3t-3 -7t3 -6.5t7 -2.5h28v-28q0 -4 2.5 -7t6.5 -3t6.5 3t2.5 7v28h29
q3 0 6 2.5t3 6.5t-3 7t-6 3h-29v28z" />
    <glyph glyph-name="bookmark-plus" unicode="bookmark&#x2d;plus" 
d="M38 263q0 15 10.5 26t26.5 11h150q16 0 27 -11t11 -27v-253q-1 -5 -5.5 -8t-9.5 1l-98 52l-98 -52q-5 -4 -9.5 -1t-4.5 8v254zM75 281q-8 0 -13.5 -5.5t-5.5 -12.5v-236l89 46q5 4 10 0l89 -46v236q0 7 -5.5 12.5t-13.5 5.5h-150zM150 225q4 0 6.5 -2.5t2.5 -6.5v-28h29
q3 0 6 -3t3 -7t-3 -6.5t-6 -2.5h-29v-28q0 -4 -2.5 -7t-6.5 -3t-6.5 3t-2.5 7v28h-28q-4 0 -7 2.5t-3 6.5t3 7t7 3h28v28q0 4 2.5 6.5t6.5 2.5z" />
    <glyph glyph-name="bookmark-star-fill" unicode="bookmark&#x2d;star&#x2d;fill" 
d="M38 9v254q0 15 10.5 26t26.5 11h150q16 0 27 -11t11 -27v-253q0 -5 -5 -7.5t-9 -0.5l-99 54l-99 -54q-4 -2 -9 0.5t-4 7.5zM153 223q-1 2 -3 2t-3 -2l-12 -24q-1 -2 -2 -2l-27 -4q-2 0 -2.5 -2t0.5 -3l19 -19q2 -1 1 -3l-4 -27q-1 -2 1 -3t4 0l23 12q2 1 4 0l23 -12
q2 -1 4 0t1 3l-4 27q-1 2 1 3l19 19q1 1 0.5 3t-2.5 2l-27 4q-1 0 -2 2z" />
    <glyph glyph-name="bookmark-star" unicode="bookmark&#x2d;star" 
d="M147 223q1 2 3 2t3 -2l12 -24q1 -2 2 -2l27 -4q2 0 2.5 -2t-0.5 -3l-19 -19q-2 -1 -1 -3l4 -27q1 -2 -1 -3t-4 0l-23 12q-2 1 -4 0l-23 -12q-2 -1 -3.5 0t-1.5 3l4 27q1 2 -1 3l-19 19q-1 1 -0.5 3t2.5 2l27 4q1 0 2 2zM38 263q0 15 10.5 26t26.5 11h150q16 0 27 -11
t11 -27v-253q-1 -5 -5.5 -8t-9.5 1l-98 52l-98 -52q-5 -4 -9.5 -1t-4.5 8v254zM75 281q-8 0 -13.5 -5.5t-5.5 -12.5v-236l89 46q5 4 10 0l89 -46v236q0 7 -5.5 12.5t-13.5 5.5h-150z" />
    <glyph glyph-name="bookmark-x-fill" unicode="bookmark&#x2d;x&#x2d;fill" 
d="M38 9v254q0 15 10.5 26t26.5 11h150q16 0 27 -11t11 -27v-253q0 -5 -5 -7.5t-9 -0.5l-99 54l-99 -54q-4 -2 -9 0.5t-4 7.5zM129 204q-4 3 -9.5 2t-7 -6.5t2.5 -9.5l22 -21l-22 -22q-4 -4 -2.5 -9t7 -6.5t9.5 2.5l21 21l21 -21q4 -4 9.5 -2.5t7 6.5t-2.5 9l-22 22l22 21
q3 3 3 7t-3 6.5t-7 2.5t-7 -2l-21 -22z" />
    <glyph glyph-name="bookmark-x" unicode="bookmark&#x2d;x" 
d="M115 204q3 2 7 2t7 -2l21 -22l21 22q4 3 9.5 2t7 -6.5t-2.5 -9.5l-22 -21l22 -22q3 -2 3 -6t-3 -7t-7 -3t-7 3l-21 21l-21 -21q-4 -4 -9.5 -2.5t-7 6.5t2.5 9l22 22l-22 21q-3 3 -3 7t3 7zM38 263q0 15 10.5 26t26.5 11h150q16 0 27 -11t11 -27v-253q-1 -5 -5.5 -8
t-9.5 1l-98 52l-98 -52q-5 -4 -9.5 -1t-4.5 8v254zM75 281q-8 0 -13.5 -5.5t-5.5 -12.5v-236l89 46q5 4 10 0l89 -46v236q0 7 -5.5 12.5t-13.5 5.5h-150z" />
    <glyph glyph-name="bookmark" unicode="bookmark" 
d="M38 263q0 15 10.5 26t26.5 11h150q16 0 27 -11t11 -27v-253q-1 -5 -5.5 -8t-9.5 1l-98 52l-98 -52q-5 -4 -9.5 -1t-4.5 8v254zM75 281q-8 0 -13.5 -5.5t-5.5 -12.5v-236l89 46q5 4 10 0l89 -46v236q0 7 -5.5 12.5t-13.5 5.5h-150z" />
    <glyph glyph-name="bookmarks-fill" unicode="bookmarks&#x2d;fill" 
d="M38 225q0 16 10.5 27t26.5 11h113q15 0 26 -11t11 -27v-216q0 -5 -5 -8t-10 1l-79 52l-79 -52q-5 -4 -9.5 -1t-4.5 8v216zM80 281q5 9 13.5 14t19.5 5h112q16 0 27 -11t11 -27v-215q-1 -6 -5.5 -8.5t-9.5 0.5l-4 3v221q0 7 -5.5 12.5t-13.5 5.5h-145z" />
    <glyph glyph-name="bookmarks" unicode="bookmarks" 
d="M38 225q0 16 10.5 27t26.5 11h113q15 0 26 -11t11 -27v-216q0 -5 -5 -8t-10 1l-79 52l-79 -52q-5 -4 -9.5 -1t-4.5 8v216zM75 244q-8 0 -13.5 -5.5t-5.5 -13.5v-198l70 46q5 4 10 0l70 -46v198q0 8 -5.5 13.5t-13.5 5.5h-112zM80 281h145q8 0 13.5 -5.5t5.5 -12.5v-221
l4 -3q5 -3 9.5 -0.5t4.5 8.5v216q1 15 -10 26t-27 11h-112q-11 0 -19.5 -5t-13.5 -14z" />
    <glyph glyph-name="bookshelf" unicode="bookshelf" 
d="M47 300q4 0 6.5 -2.5t2.5 -6.5v-28h188v28q0 4 2.5 6.5t6.5 2.5t7 -2.5t3 -6.5v-282q0 -4 -3 -6.5t-7 -2.5t-6.5 2.5t-2.5 6.5v10h-188v-10q0 -4 -2.5 -6.5t-6.5 -2.5t-6.5 2.5t-2.5 6.5v282q0 4 2.5 6.5t6.5 2.5zM56 38h188v56h-188v-56zM56 113h188v56h-188v-56z
M56 188h188v56h-188v-56z" />
    <glyph glyph-name="bootstrap-fill" unicode="bootstrap&#x2d;fill" 
d="M120 166v47h33q14 0 21.5 -6.5t7.5 -17.5q0 -23 -33 -23h-29zM120 96h35q17 0 25.5 6.5t8.5 19.5q0 25 -35 25h-34v-51zM75 300q-20 0 -37.5 -10t-27.5 -27.5t-10 -37.5v-150q0 -20 10 -37.5t27.5 -27.5t37.5 -10h150q15 0 29 5.5t24.5 16.5t16 24.5t5.5 28.5v150
q0 15 -5.5 28.5t-16 24.5t-24.5 16.5t-29 5.5h-150zM95 75v159h64q22 0 34.5 -11t12.5 -29q0 -12 -8 -22t-19 -12v-2q16 -2 25.5 -12.5t9.5 -25.5q0 -21 -14.5 -33t-39.5 -12h-65z" />
    <glyph glyph-name="bootstrap-reboot" unicode="bootstrap&#x2d;reboot" 
d="M22 150q0 -35 17 -64.5t46.5 -46.5t64.5 -17t64.5 17t46.5 46.5t17 64.5t-17 64.5t-46.5 46.5t-64.5 17q-4 0 -7.5 3.5t-3.5 8t3.5 7.5t7.5 3q34 0 64.5 -14.5t52 -40.5t29.5 -59.5t1 -66t-27 -59.5t-50.5 -43t-64 -17t-64.5 12t-53.5 39t-31.5 58.5t-3.5 65.5t24.5 61
l-12 11q-5 4 -3.5 10.5t7.5 8.5l47 12q6 2 10.5 -2t3.5 -9l-6 -49q-1 -6 -7 -8.5t-11 1.5l-12 11q-22 -33 -22 -72zM125 81v53h29l28 -53h25l-31 57q12 4 19.5 14.5t7.5 24.5q0 19 -12.5 30.5t-33.5 11.5h-54v-138h22zM125 151v50h29q12 0 19.5 -6.5t7.5 -18.5t-7 -18.5
t-19 -6.5h-30z" />
    <glyph glyph-name="bootstrap" unicode="bootstrap" 
d="M95 75h65q25 0 39.5 12t14.5 33q0 15 -9.5 25.5t-25.5 12.5v2q11 2 19 12t8 22q0 18 -12.5 29t-34.5 11h-64v-159zM120 166v47h33q14 0 21.5 -6.5t7.5 -17.5q0 -23 -33 -23h-29zM120 96v51h34q35 0 35 -25q0 -13 -8.5 -19.5t-25.5 -6.5h-35zM0 225q0 20 10 37.5
t27.5 27.5t37.5 10h150q20 0 37.5 -10t27.5 -27.5t10 -37.5v-150q0 -20 -10 -37.5t-27.5 -27.5t-37.5 -10h-150q-20 0 -37.5 10t-27.5 27.5t-10 37.5v150zM75 281q-23 0 -39.5 -16.5t-16.5 -39.5v-150q0 -23 16.5 -39.5t39.5 -16.5h150q23 0 39.5 16.5t16.5 39.5v150
q0 23 -16.5 39.5t-39.5 16.5h-150z" />
    <glyph glyph-name="border-all" unicode="border&#x2d;all" 
d="M0 300h300v-300h-300v300zM19 281v-122h122v122h-122zM159 281v-122h122v122h-122zM281 141h-122v-122h122v122zM141 19v122h-122v-122h122z" />
    <glyph glyph-name="border-bottom" unicode="border&#x2d;bottom" 
d="M18 300h-18v-18h9v-1h9v1h1v9h-1v9zM36 281h17v19h-17v-19zM71 281h17v19h-17v-19zM106 281h18v19h-18v-19zM141 282v-1h18v1v0v9v0v9h-18v-9v0v-9v0zM176 281h18v19h-18v-19zM212 281h17v19h-17v-19zM247 281h17v19h-17v-19zM282 281h9v1h9v18h-18v-9h-1v-9h1v-1z
M19 247v17h-19v-17h19zM141 264v-17h18v17h-18zM281 264v-17h19v17h-19zM19 212v17h-19v-17h19zM141 229v-17h18v17h-18zM281 229v-17h19v17h-19zM19 176v18h-19v-18h19zM141 194v-18h18v18h-18zM281 194v-18h19v18h-19zM9 141h9v0h1v18h-1v0h-9v0h-9v-18h9v0zM36 141h17v18
h-17v-18zM71 141h17v18h-17v-18zM106 141h18v18h-18v-18zM159 141v0v0v18v0v0h-18v0v0v-18v0v0h18zM176 141h18v18h-18v-18zM212 141h17v18h-17v-18zM247 141h17v18h-17v-18zM282 141h9v0h9v18h-9v0h-9v0h-1v-18h1v0zM0 124v-18h19v18h-19zM141 124v-18h18v18h-18zM300 106
v18h-19v-18h19zM0 88v-17h19v17h-19zM141 88v-17h18v17h-18zM300 71v17h-19v-17h19zM0 53v-17h19v17h-19zM141 53v-17h18v17h-18zM300 36v17h-19v-17h19zM0 19h300v-19h-300v19z" />
    <glyph glyph-name="border-center" unicode="border&#x2d;center" 
d="M18 300h-18v-18h9v-1h9v1h1v9h-1v9zM36 281h17v19h-17v-19zM71 281h17v19h-17v-19zM106 281h18v19h-18v-19zM141 282v-1h18v1v0v9v0v9h-18v-9v0v-9v0zM176 281h18v19h-18v-19zM212 281h17v19h-17v-19zM247 281h17v19h-17v-19zM282 281h9v1h9v18h-18v-9h-1v-9h1v-1z
M19 247v17h-19v-17h19zM141 264v-17h18v17h-18zM281 264v-17h19v17h-19zM19 212v17h-19v-17h19zM141 229v-17h18v17h-18zM281 229v-17h19v17h-19zM19 176v18h-19v-18h19zM141 194v-18h18v18h-18zM281 194v-18h19v18h-19zM0 141v18h300v-18h-300zM0 124v-18h19v18h-19z
M141 124v-18h18v18h-18zM300 106v18h-19v-18h19zM0 88v-17h19v17h-19zM141 88v-17h18v17h-18zM300 71v17h-19v-17h19zM0 53v-17h19v17h-19zM141 53v-17h18v17h-18zM300 36v17h-19v-17h19zM0 0h18v9h1v9h-1v1h-9v-1h-9v-18zM36 0h17v19h-17v-19zM71 0h17v19h-17v-19zM106 0
h18v19h-18v-19zM141 9v-9h18v9v0v9v0v1h-18v-1v0v-9v0zM176 0h18v19h-18v-19zM212 0h17v19h-17v-19zM247 0h17v19h-17v-19zM282 9v-9h18v18h-9v1h-9v-1h-1v-9h1z" />
    <glyph glyph-name="border-inner" unicode="border&#x2d;inner" 
d="M18 300h-18v-18h9v-1h9v1h1v9h-1v9zM36 281h17v19h-17v-19zM71 281h17v19h-17v-19zM106 281h18v19h-18v-19zM159 159h141v-18h-141v-141h-18v141h-141v18h141v141h18v-141zM176 281h18v19h-18v-19zM212 281h17v19h-17v-19zM247 281h17v19h-17v-19zM282 281h9v1h9v18h-18
v-9h-1v-9h1v-1zM19 247v17h-19v-17h19zM281 264v-17h19v17h-19zM19 212v17h-19v-17h19zM281 229v-17h19v17h-19zM19 176v18h-19v-18h19zM281 194v-18h19v18h-19zM0 124v-18h19v18h-19zM300 106v18h-19v-18h19zM0 88v-17h19v17h-19zM300 71v17h-19v-17h19zM0 53v-17h19v17
h-19zM300 36v17h-19v-17h19zM0 0h18v9h1v9h-1v1h-9v-1h-9v-18zM36 0h17v19h-17v-19zM71 0h17v19h-17v-19zM106 0h18v19h-18v-19zM176 0h18v19h-18v-19zM212 0h17v19h-17v-19zM247 0h17v19h-17v-19zM282 9v-9h18v18h-9v1h-9v-1h-1v-9h1z" />
    <glyph glyph-name="border-left" unicode="border&#x2d;left" 
d="M0 300v-300h19v300h-19zM36 281h17v19h-17v-19zM71 281h17v19h-17v-19zM106 281h18v19h-18v-19zM141 282v-1h18v1v0v9v0v9h-18v-9v0v-9v0zM176 281h18v19h-18v-19zM212 281h17v19h-17v-19zM247 281h17v19h-17v-19zM282 281h9v1h9v18h-18v-9h-1v-9h1v-1zM141 264v-17h18
v17h-18zM281 264v-17h19v17h-19zM141 229v-17h18v17h-18zM281 229v-17h19v17h-19zM141 194v-18h18v18h-18zM281 194v-18h19v18h-19zM36 141h17v18h-17v-18zM71 141h17v18h-17v-18zM106 141h18v18h-18v-18zM159 141v0v0v18v0v0h-18v0v0v-18v0v0h18zM176 141h18v18h-18v-18z
M212 141h17v18h-17v-18zM247 141h17v18h-17v-18zM282 141h9v0h9v18h-9v0h-9v0h-1v-18h1v0zM141 124v-18h18v18h-18zM300 106v18h-19v-18h19zM141 88v-17h18v17h-18zM300 71v17h-19v-17h19zM141 53v-17h18v17h-18zM300 36v17h-19v-17h19zM36 0h17v19h-17v-19zM71 0h17v19h-17
v-19zM106 0h18v19h-18v-19zM141 9v-9h18v9v0v9v0v1h-18v-1v0v-9v0zM176 0h18v19h-18v-19zM212 0h17v19h-17v-19zM247 0h17v19h-17v-19zM282 9v-9h18v18h-9v1h-9v-1h-1v-9h1z" />
    <glyph glyph-name="border-middle" unicode="border&#x2d;middle" 
d="M18 300h-18v-18h9v-1h9v1h1v9h-1v9zM36 281h17v19h-17v-19zM71 281h17v19h-17v-19zM106 281h18v19h-18v-19zM159 0h-18v300h18v-300zM176 281h18v19h-18v-19zM212 281h17v19h-17v-19zM247 281h17v19h-17v-19zM282 281h9v1h9v18h-18v-9h-1v-9h1v-1zM19 247v17h-19v-17h19z
M281 264v-17h19v17h-19zM19 212v17h-19v-17h19zM281 229v-17h19v17h-19zM19 176v18h-19v-18h19zM281 194v-18h19v18h-19zM9 141h9v0h1v18h-1v0h-9v0h-9v-18h9v0zM36 141h17v18h-17v-18zM71 141h17v18h-17v-18zM106 141h18v18h-18v-18zM176 141h18v18h-18v-18zM212 141h17v18
h-17v-18zM247 141h17v18h-17v-18zM282 141h9v0h9v18h-9v0h-9v0h-1v-18h1v0zM0 124v-18h19v18h-19zM300 106v18h-19v-18h19zM0 88v-17h19v17h-19zM300 71v17h-19v-17h19zM0 53v-17h19v17h-19zM300 36v17h-19v-17h19zM0 0h18v9h1v9h-1v1h-9v-1h-9v-18zM36 0h17v19h-17v-19z
M71 0h17v19h-17v-19zM106 0h18v19h-18v-19zM176 0h18v19h-18v-19zM212 0h17v19h-17v-19zM247 0h17v19h-17v-19zM282 9v-9h18v18h-9v1h-9v-1h-1v-9h1z" />
    <glyph glyph-name="border-outer" unicode="border&#x2d;outer" 
d="M141 264v-17h18v17h-18zM141 229v-17h18v17h-18zM141 194v-18h18v18h-18zM36 141h17v18h-17v-18zM71 141h17v18h-17v-18zM106 141h18v18h-18v-18zM159 141v0v0v18v0v0h-18v0v0v-18v0v0h18zM176 141h18v18h-18v-18zM212 141h17v18h-17v-18zM247 141h17v18h-17v-18z
M141 124v-18h18v18h-18zM141 88v-17h18v17h-18zM141 53v-17h18v17h-18zM0 300v-300h300v300h-300zM19 281h262v-262h-262v262z" />
    <glyph glyph-name="border-right" unicode="border&#x2d;right" 
d="M18 300h-18v-18h9v-1h9v1h1v9h-1v9zM36 281h17v19h-17v-19zM71 281h17v19h-17v-19zM106 281h18v19h-18v-19zM141 282v-1h18v1v0v9v0v9h-18v-9v0v-9v0zM176 281h18v19h-18v-19zM212 281h17v19h-17v-19zM247 281h17v19h-17v-19zM300 300h-19v-300h19v300zM19 247v17h-19
v-17h19zM141 264v-17h18v17h-18zM19 212v17h-19v-17h19zM141 229v-17h18v17h-18zM19 176v18h-19v-18h19zM141 194v-18h18v18h-18zM9 141h9v0h1v18h-1v0h-9v0h-9v-18h9v0zM36 141h17v18h-17v-18zM71 141h17v18h-17v-18zM106 141h18v18h-18v-18zM159 141v0v0v18v0v0h-18v0v0
v-18v0v0h18zM176 141h18v18h-18v-18zM212 141h17v18h-17v-18zM247 141h17v18h-17v-18zM0 124v-18h19v18h-19zM141 124v-18h18v18h-18zM0 88v-17h19v17h-19zM141 88v-17h18v17h-18zM0 53v-17h19v17h-19zM141 53v-17h18v17h-18zM0 0h18v9h1v9h-1v1h-9v-1h-9v-18zM36 0h17v19
h-17v-19zM71 0h17v19h-17v-19zM106 0h18v19h-18v-19zM141 9v-9h18v9v0v9v0v1h-18v-1v0v-9v0zM176 0h18v19h-18v-19zM212 0h17v19h-17v-19zM247 0h17v19h-17v-19z" />
    <glyph glyph-name="border-style" unicode="border&#x2d;style" 
d="M19 234q0 4 2.5 7t6.5 3h244q4 0 6.5 -3t2.5 -7v-18q0 -4 -2.5 -7t-6.5 -3h-244q-4 0 -6.5 3t-2.5 7v18zM19 159q0 4 2.5 7t6.5 3h94q4 0 6.5 -3t2.5 -7v-18q0 -4 -2.5 -7t-6.5 -3h-94q-4 0 -6.5 3t-2.5 7v18zM19 84q0 4 2.5 7t6.5 3h19q4 0 6.5 -3t2.5 -7v-18
q0 -4 -2.5 -7t-6.5 -3h-19q-4 0 -6.5 3t-2.5 7v18zM169 84q0 4 2.5 7t6.5 3h19q4 0 6.5 -3t2.5 -7v-18q0 -4 -2.5 -7t-6.5 -3h-19q-4 0 -6.5 3t-2.5 7v18zM94 84q0 4 2.5 7t6.5 3h19q4 0 6.5 -3t2.5 -7v-18q0 -4 -2.5 -7t-6.5 -3h-19q-4 0 -6.5 3t-2.5 7v18zM244 84
q0 4 2.5 7t6.5 3h19q4 0 6.5 -3t2.5 -7v-18q0 -4 -2.5 -7t-6.5 -3h-19q-4 0 -6.5 3t-2.5 7v18zM169 159q0 4 2.5 7t6.5 3h94q4 0 6.5 -3t2.5 -7v-18q0 -4 -2.5 -7t-6.5 -3h-94q-4 0 -6.5 3t-2.5 7v18z" />
    <glyph glyph-name="border-top" unicode="border&#x2d;top" 
d="M0 300v-19h300v19h-300zM19 247v17h-19v-17h19zM141 264v-17h18v17h-18zM281 264v-17h19v17h-19zM19 212v17h-19v-17h19zM141 229v-17h18v17h-18zM281 229v-17h19v17h-19zM19 176v18h-19v-18h19zM141 194v-18h18v18h-18zM281 194v-18h19v18h-19zM9 141h9v0h1v18h-1v0h-9
v0h-9v-18h9v0zM36 141h17v18h-17v-18zM71 141h17v18h-17v-18zM106 141h18v18h-18v-18zM159 141v0v0v18v0v0h-18v0v0v-18v0v0h18zM176 141h18v18h-18v-18zM212 141h17v18h-17v-18zM247 141h17v18h-17v-18zM282 141h9v0h9v18h-9v0h-9v0h-1v-18h1v0zM0 124v-18h19v18h-19z
M141 124v-18h18v18h-18zM300 106v18h-19v-18h19zM0 88v-17h19v17h-19zM141 88v-17h18v17h-18zM300 71v17h-19v-17h19zM0 53v-17h19v17h-19zM141 53v-17h18v17h-18zM300 36v17h-19v-17h19zM0 0h18v9h1v9h-1v1h-9v-1h-9v-18zM36 0h17v19h-17v-19zM71 0h17v19h-17v-19zM106 0
h18v19h-18v-19zM141 9v-9h18v9v0v9v0v1h-18v-1v0v-9v0zM176 0h18v19h-18v-19zM212 0h17v19h-17v-19zM247 0h17v19h-17v-19zM282 9v-9h18v18h-9v1h-9v-1h-1v-9h1z" />
    <glyph glyph-name="border-width" unicode="border&#x2d;width" 
d="M0 234q0 4 2.5 7t6.5 3h282q4 0 6.5 -3t2.5 -7v-37q0 -4 -2.5 -7t-6.5 -3h-282q-4 1 -6.5 3.5t-2.5 6.5v37zM0 141q0 4 2.5 6.5t6.5 2.5h282q4 0 6.5 -2.5t2.5 -6.5v-19q0 -4 -2.5 -6.5t-6.5 -3.5h-282q-4 1 -6.5 3.5t-2.5 6.5v19zM0 66q0 4 2.5 6.5t6.5 2.5h282
q4 0 6.5 -2.5t2.5 -6.5t-2.5 -7t-6.5 -3h-282q-4 0 -6.5 3t-2.5 7z" />
    <glyph glyph-name="border" unicode="border" 
d="M0 300h18v-9h1v-9h-1v-1h-9v1h-9v18zM53 281h-17v19h17v-19zM88 281h-17v19h17v-19zM124 281h-18v19h18v-19zM141 281v1v0v9v0v9h18v-9v0v-9v0v-1h-18zM194 281h-18v19h18v-19zM229 281h-17v19h17v-19zM264 281h-17v19h17v-19zM291 281h-9v1h-1v9h1v9h18v-18h-9v-1z
M19 264v-17h-19v17h19zM141 247v17h18v-17h-18zM281 247v17h19v-17h-19zM19 229v-17h-19v17h19zM141 212v17h18v-17h-18zM281 212v17h19v-17h-19zM19 194v-18h-19v18h19zM141 176v18h18v-18h-18zM281 176v18h19v-18h-19zM18 141h-9v0h-9v18h9v0h9v0h1v-18h-1v0zM53 141h-17
v18h17v-18zM88 141h-17v18h17v-18zM124 141h-18v18h18v-18zM159 141v0h-18v0v0v18v0v0h18v0v0v-18v0zM194 141h-18v18h18v-18zM229 141h-17v18h17v-18zM264 141h-17v18h17v-18zM291 141h-9v0h-1v18h1v0h9v0h9v-18h-9v0zM0 106v18h19v-18h-19zM141 106v18h18v-18h-18z
M300 124v-18h-19v18h19zM0 71v17h19v-17h-19zM141 71v17h18v-17h-18zM300 88v-17h-19v17h19zM0 36v17h19v-17h-19zM141 36v17h18v-17h-18zM300 53v-17h-19v17h19zM18 0h-18v18h9v1h9v-1h1v-9h-1v-9zM53 0h-17v19h17v-19zM88 0h-17v19h17v-19zM124 0h-18v19h18v-19zM141 0v9
v0v9v0v1h18v-1v0v-9v0v-9h-18zM194 0h-18v19h18v-19zM229 0h-17v19h17v-19zM264 0h-17v19h17v-19zM282 0v9h-1v9h1v1h9v-1h9v-18h-18z" />
    <glyph glyph-name="bounding-box-circles" unicode="bounding&#x2d;box&#x2d;circles" 
d="M38 281q-8 0 -13.5 -5.5t-5.5 -13t5.5 -13t13 -5.5t13 5.5t5.5 13t-5.5 13t-12.5 5.5zM0 263q0 14 9.5 24.5t23.5 12.5t25.5 -6t15.5 -22h152q4 13 15 21t24.5 7t23.5 -11t11 -23.5t-7 -24.5t-21 -15v-152q13 -4 21 -15t7 -24.5t-11 -23.5t-23.5 -11t-24.5 7t-15 21h-152
q-4 -13 -15 -21t-24.5 -7t-23.5 11t-11 23.5t7 24.5t21 15v152q-12 3 -20 13.5t-8 22.5v1zM47 226v-152q10 -3 17 -10t10 -17h152q3 10 10 17t17 10v152q-10 3 -17 10t-10 17h-152q-3 -10 -10 -17t-17 -10zM263 281q-8 0 -13.5 -5.5t-5.5 -13t5.5 -13t13 -5.5t13 5.5t5.5 13
t-5.5 13t-12.5 5.5zM38 56q-8 0 -13.5 -5.5t-5.5 -13t5.5 -13t13 -5.5t13 5.5t5.5 13t-5.5 13t-12.5 5.5zM263 56q-8 0 -13.5 -5.5t-5.5 -13t5.5 -13t13 -5.5t13 5.5t5.5 13t-5.5 13t-12.5 5.5z" />
    <glyph glyph-name="bounding-box" unicode="bounding&#x2d;box" 
d="M94 263v37h-94v-94h38v-112h-38v-94h94v38h112v-38h94v94h-37v112h37v94h-94v-37h-112zM206 244v-38h38v-112h-38v-38h-112v38h-38v112h38v38h112zM225 281h56v-56h-56v56zM281 75v-56h-56v56h56zM75 19h-56v56h56v-56zM19 225v56h56v-56h-56z" />
    <glyph glyph-name="box-arrow-down-left" unicode="box&#x2d;arrow&#x2d;down&#x2d;left" 
d="M138 66q0 -4 3 -7t6 -3h125q12 0 20 8.5t8 19.5v188q0 12 -8 20t-20 8h-188q-11 0 -19.5 -8t-8.5 -20v-125q0 -3 3 -6t7 -3t6.5 3t2.5 6v125q0 4 2.5 6.5t6.5 2.5h188q4 0 6.5 -2.5t2.5 -6.5v-188q0 -4 -2.5 -6.5t-6.5 -2.5h-125q-3 0 -6 -2.5t-3 -6.5zM0 9
q0 -4 2.5 -6.5t6.5 -2.5h94q4 0 7 2.5t2.5 6.5t-3 7t-6.5 3h-71l153 152q3 3 3 7t-3 7t-7 3t-7 -3l-152 -153v71q0 4 -3 7t-7 3t-6.5 -3t-2.5 -7v-94z" />
    <glyph glyph-name="box-arrow-down-right" unicode="box&#x2d;arrow&#x2d;down&#x2d;right" 
d="M162 66q0 -4 -3 -7t-6 -3h-125q-12 0 -20 8.5t-8 19.5v188q0 12 8 20t20 8h188q11 0 19.5 -8t8.5 -20v-125q0 -3 -3 -6t-7 -3t-6.5 3t-2.5 6v125q0 4 -2.5 6.5t-6.5 2.5h-188q-4 0 -6.5 -2.5t-2.5 -6.5v-188q0 -4 2.5 -6.5t6.5 -2.5h125q3 0 6 -2.5t3 -6.5zM300 9
q0 -4 -2.5 -6.5t-6.5 -2.5h-94q-4 0 -7 2.5t-2.5 6.5t3 7t6.5 3h71l-153 152q-4 4 -2.5 9.5t7 7t9.5 -2.5l152 -153v71q0 4 3 7t7 3t6.5 -3t2.5 -7v-94z" />
    <glyph glyph-name="box-arrow-down" unicode="box&#x2d;arrow&#x2d;down" 
d="M66 113q-4 -1 -7 2t-3 7v150q0 4 3 6.5t7 2.5h168q4 0 7 -2.5t3 -6.5v-150q0 -4 -3 -6.5t-7 -3.5h-37q-4 0 -7 -2.5t-2.5 -6.5t3 -6.5t6.5 -2.5h37q12 0 20.5 8t7.5 20v150q1 12 -7.5 20t-20.5 8h-168q-12 0 -20.5 -8t-8.5 -20v-150q0 -12 8.5 -20t20.5 -8h37q4 0 7 2.5
t2.5 6.5t-3 7t-6.5 3h-37zM143 3q3 -3 7 -3t7 3l56 56q3 3 3 7t-3 6.5t-7 2.5t-6 -3l-41 -40v165q0 4 -2.5 6.5t-6.5 2.5t-6.5 -2.5t-2.5 -6.5v-165l-41 40q-2 3 -6 3t-7 -2.5t-3 -6.5t3 -7z" />
    <glyph glyph-name="box-arrow-in-down-left" unicode="box&#x2d;arrow&#x2d;in&#x2d;down&#x2d;left" 
d="M181 253q0 4 -3 7t-7 3h-124q-12 0 -20 -8.5t-8 -20.5v-187q0 -12 8 -20t20 -8h187q12 0 20.5 8t7.5 20v124q1 4 -2 7t-7 3t-6.5 -3t-2.5 -7v-124q0 -4 -3 -6.5t-7 -2.5h-187q-4 0 -6.5 2.5t-2.5 6.5v187q0 4 2.5 7t6.5 3h124q4 0 7 2.5t3 6.5zM94 103q0 -4 2.5 -6.5
t6.5 -2.5h94q4 0 6.5 2.5t2.5 6.5t-2.5 7t-6.5 3h-71l153 152q2 3 2 7t-2.5 6.5t-6.5 2.5t-7 -2l-152 -153v71q-1 4 -3.5 6.5t-6.5 2.5t-6.5 -2.5t-2.5 -6.5v-94z" />
    <glyph glyph-name="box-arrow-in-down-right" unicode="box&#x2d;arrow&#x2d;in&#x2d;down&#x2d;right" 
d="M119 253q0 4 3 7t7 3h124q12 0 20 -8.5t8 -20.5v-187q0 -12 -8 -20t-20 -8h-187q-12 0 -20.5 8t-8.5 20v124q1 4 3.5 7t6.5 3t6.5 -3t2.5 -7v-124q0 -4 3 -6.5t7 -2.5h187q4 0 7 2.5t3 6.5v187q0 4 -3 7t-7 3h-124q-4 0 -7 2.5t-3 6.5zM206 103q0 -4 -2.5 -6.5t-6.5 -2.5
h-94q-4 0 -6.5 2.5t-2.5 6.5t2.5 7t6.5 3h71l-153 152q-3 4 -2 9.5t6.5 6.5t9.5 -2l153 -153v71q0 4 2.5 6.5t6.5 2.5t6.5 -2.5t2.5 -6.5v-94z" />
    <glyph glyph-name="box-arrow-in-down" unicode="box&#x2d;arrow&#x2d;in&#x2d;down" 
d="M66 188q-4 0 -7 -3t-3 -7v-150q0 -4 3 -6.5t7 -2.5h168q4 0 7 2.5t3 6.5v150q0 4 -3 7t-7 3h-37q-4 0 -7 2.5t-2.5 6.5t3 6.5t6.5 2.5h37q12 0 20.5 -8t7.5 -20v-150q1 -12 -7.5 -20t-20.5 -8h-168q-12 0 -20 8t-9 20v150q1 12 9 20t20 8h37q4 0 7 -2.5t2.5 -6.5t-3 -7
t-6.5 -3h-37v1zM143 78q3 -3 7 -3t7 3l56 56q3 3 3 7t-3 6.5t-7 2.5t-6 -3l-41 -40v165q0 4 -2.5 6.5t-6.5 2.5t-6.5 -2.5t-2.5 -6.5v-165l-41 40q-2 3 -6 3t-7 -2.5t-3 -6.5t3 -7z" />
    <glyph glyph-name="box-arrow-in-left" unicode="box&#x2d;arrow&#x2d;in&#x2d;left" 
d="M188 234q0 4 -3 7t-7 3h-150q-4 0 -6.5 -3t-2.5 -7v-168q0 -4 2.5 -7t6.5 -3h150q4 0 7 3t3 7v37q0 4 2.5 7t6.5 2.5t6.5 -3t2.5 -6.5v-37q0 -12 -8 -20t-20 -8h-150q-12 0 -20 8t-8 20v168q0 12 8 20.5t20 7.5h150q12 1 20 -7.5t8 -20.5v-37q0 -4 -2.5 -7t-6.5 -2.5
t-7 3t-3 6.5v37h1zM78 143q-3 3 -3 7t3 7l56 56q4 4 9 2.5t6.5 -7t-2.5 -8.5l-40 -41h165q4 0 6.5 -2.5t2.5 -6.5t-2.5 -6.5t-6.5 -2.5h-165l40 -41q3 -2 3 -6t-2.5 -7t-6.5 -3t-7 3z" />
    <glyph glyph-name="box-arrow-in-right" unicode="box&#x2d;arrow&#x2d;in&#x2d;right" 
d="M113 234q-1 4 2 7t7 3h150q4 0 6.5 -3t2.5 -7v-168q0 -4 -2.5 -7t-6.5 -3h-150q-4 0 -7 3t-3 7v37q0 4 -2.5 7t-6.5 2.5t-6.5 -3t-2.5 -6.5v-37q0 -12 8 -20.5t20 -8.5h150q12 1 20 9t8 20v168q0 12 -8 20.5t-20 7.5h-150q-12 1 -20 -7.5t-8 -20.5v-37q0 -4 2.5 -7
t6.5 -2.5t7 3t3 6.5v37zM222 143q3 3 3 7t-3 7l-56 56q-4 4 -9 2.5t-6.5 -7t2.5 -8.5l40 -41h-165q-4 0 -6.5 -2.5t-2.5 -6.5t2.5 -6.5t6.5 -2.5h165l-40 -41q-3 -2 -3 -6t2.5 -7t6.5 -3t7 3z" />
    <glyph glyph-name="box-arrow-in-up-left" unicode="box&#x2d;arrow&#x2d;in&#x2d;up&#x2d;left" 
d="M181 47q0 -4 -3 -6.5t-7 -2.5h-124q-12 0 -20 8t-8 20v187q0 12 8 20t20 8h187q12 0 20 -8t8 -20v-124q1 -4 -2 -7t-7 -3t-6.5 3t-2.5 7v124q0 4 -3 7t-7 3h-187q-4 0 -6.5 -3t-2.5 -7v-187q0 -4 2.5 -7t6.5 -3h124q4 0 7 -2.5t3 -6.5zM94 197q0 4 2.5 6.5t6.5 2.5h94
q4 0 6.5 -2.5t2.5 -6.5t-2.5 -7t-6.5 -3h-71l153 -152q2 -3 2 -7t-2.5 -6.5t-6.5 -2.5t-7 2l-152 153v-71q-1 -4 -3.5 -6.5t-6.5 -2.5t-6.5 2.5t-2.5 6.5v94z" />
    <glyph glyph-name="box-arrow-in-up-right" unicode="box&#x2d;arrow&#x2d;in&#x2d;up&#x2d;right" 
d="M119 47q0 -4 3 -6.5t7 -2.5h124q12 0 20 8t8 20v187q0 12 -8 20t-20 8h-187q-12 0 -20.5 -8t-8.5 -20v-124q1 -4 3.5 -7t6.5 -3t6.5 3t2.5 7v124q0 4 3 7t7 3h187q4 0 7 -3t3 -7v-187q0 -4 -3 -7t-7 -3h-124q-4 0 -7 -2.5t-3 -6.5zM206 197q0 4 -2.5 6.5t-6.5 2.5h-94
q-4 0 -6.5 -2.5t-2.5 -6.5t2.5 -7t6.5 -3h71l-153 -152q-2 -3 -2 -7t2.5 -6.5t6.5 -2.5t7 2l153 153v-71q0 -4 2.5 -6.5t6.5 -2.5t6.5 2.5t2.5 6.5v94z" />
    <glyph glyph-name="box-arrow-in-up" unicode="box&#x2d;arrow&#x2d;in&#x2d;up" 
d="M66 113q-4 -1 -7 2t-3 7v150q0 4 3 6.5t7 2.5h168q4 0 7 -2.5t3 -6.5v-150q0 -4 -3 -6.5t-7 -3.5h-37q-4 0 -7 -2.5t-2.5 -6.5t3 -6.5t6.5 -2.5h37q12 0 20.5 8t7.5 20v150q1 12 -7.5 20t-20.5 8h-168q-12 0 -20.5 -8t-8.5 -20v-150q0 -12 8.5 -20t20.5 -8h37q4 0 7 2.5
t2.5 6.5t-3 7t-6.5 3h-37zM143 222q3 3 7 3t7 -3l56 -56q3 -3 3 -7t-3 -6.5t-7 -2.5t-6 3l-41 40v-165q0 -4 -2.5 -6.5t-6.5 -2.5t-6.5 2.5t-2.5 6.5v165l-41 -40q-2 -3 -6 -3t-7 2.5t-3 6.5t3 7z" />
    <glyph glyph-name="box-arrow-left" unicode="box&#x2d;arrow&#x2d;left" 
d="M113 66q-1 -4 2 -7t7 -3h150q4 0 6.5 3t2.5 7v168q0 4 -2.5 7t-6.5 3h-150q-4 0 -6.5 -3t-3.5 -7v-37q0 -4 -2.5 -7t-6.5 -2.5t-6.5 3t-2.5 6.5v37q0 12 8 20.5t20 7.5h150q12 1 20 -7.5t8 -20.5v-168q0 -12 -8 -20t-20 -8h-150q-12 -1 -20 7.5t-8 20.5v37q0 4 2.5 7
t6.5 2.5t7 -3t3 -6.5v-37zM3 143q-3 3 -3 7t3 7l56 56q3 3 7 3t6.5 -3t2.5 -7t-3 -6l-40 -41h165q4 0 6.5 -2.5t2.5 -6.5t-2.5 -6.5t-6.5 -2.5h-165l40 -41q3 -2 3 -6t-2.5 -7t-6.5 -3t-7 3z" />
    <glyph glyph-name="box-arrow-right" unicode="box&#x2d;arrow&#x2d;right" 
d="M188 66q0 -4 -3 -7t-7 -3h-150q-4 0 -6.5 3t-2.5 7v168q0 4 2.5 7t6.5 3h150q4 0 7 -3t3 -7v-37q0 -4 2.5 -7t6.5 -2.5t6.5 3t2.5 6.5v37q0 12 -8 20.5t-20 7.5h-150q-12 1 -20 -7.5t-8 -20.5v-168q0 -12 8 -20.5t20 -8.5h150q12 0 20 8.5t8 20.5v37q0 4 -2.5 7t-6.5 2.5
t-7 -3t-3 -6.5v-37h1zM297 143q3 3 3 7t-3 7l-56 56q-3 3 -7 3t-6.5 -3t-2.5 -7t3 -6l40 -41h-165q-4 0 -6.5 -2.5t-2.5 -6.5t2.5 -6.5t6.5 -2.5h165l-40 -41q-3 -2 -3 -6t2.5 -7t6.5 -3t7 3z" />
    <glyph glyph-name="box-arrow-up-left" unicode="box&#x2d;arrow&#x2d;up&#x2d;left" 
d="M138 234q0 4 3 7t6 3h125q12 0 20 -8.5t8 -19.5v-188q0 -12 -8 -20t-20 -8h-188q-11 0 -19.5 8t-8.5 20v125q0 3 3 6t7 3t6.5 -3t2.5 -6v-125q0 -4 2.5 -6.5t6.5 -2.5h188q4 0 6.5 2.5t2.5 6.5v188q0 4 -2.5 6.5t-6.5 2.5h-125q-3 0 -6 2.5t-3 6.5zM0 291q0 4 2.5 6.5
t6.5 2.5h94q4 0 7 -2.5t3 -6.5t-3 -7t-7 -3h-71l153 -152q3 -3 3 -7t-3 -7t-7 -3t-7 3l-152 153v-71q0 -4 -3 -6.5t-7 -2.5t-6.5 2.5t-2.5 6.5v94z" />
    <glyph glyph-name="box-arrow-up-right" unicode="box&#x2d;arrow&#x2d;up&#x2d;right" 
d="M162 234q0 4 -3 7t-6 3h-125q-12 0 -20 -8.5t-8 -19.5v-188q0 -12 8 -20t20 -8h188q11 0 19.5 8t8.5 20v125q0 3 -3 6t-7 3t-6.5 -3t-2.5 -6v-125q0 -4 -2.5 -6.5t-6.5 -2.5h-188q-4 0 -6.5 2.5t-2.5 6.5v188q0 4 2.5 6.5t6.5 2.5h125q3 0 6 2.5t3 6.5zM300 291
q0 4 -2.5 6.5t-6.5 2.5h-94q-4 0 -7 -2.5t-2.5 -6.5t3 -7t6.5 -3h71l-153 -152q-3 -3 -3 -7t3 -7t7 -3t7 3l152 153v-71q0 -4 3 -6.5t7 -2.5t6.5 2.5t2.5 6.5v94z" />
    <glyph glyph-name="box-arrow-up" unicode="box&#x2d;arrow&#x2d;up" 
d="M66 188q-4 0 -7 -3t-3 -7v-150q0 -4 3 -6.5t7 -2.5h168q4 0 7 2.5t3 6.5v150q0 4 -3 7t-7 3h-37q-4 0 -7 2.5t-2.5 6.5t3 6.5t6.5 2.5h37q12 0 20.5 -8t7.5 -20v-150q1 -12 -7.5 -20t-20.5 -8h-168q-12 0 -20 8t-9 20v150q1 12 9 20t20 8h37q4 0 7 -2.5t2.5 -6.5t-3 -7
t-6.5 -3h-37v1zM143 297q3 3 7 3t7 -3l56 -56q3 -3 3 -7t-3 -6.5t-7 -2.5t-6 3l-41 40v-165q0 -4 -2.5 -6.5t-6.5 -2.5t-6.5 2.5t-2.5 6.5v165l-41 -40q-2 -3 -6 -3t-7 2.5t-3 6.5t3 7z" />
    <glyph glyph-name="box-seam" unicode="box&#x2d;seam" 
d="M153 279q-3 2 -6 0l-112 -45l45 -18l115 47zM220 252l-115 -46l45 -18l115 46zM281 221l-122 -49v-149l122 49v149zM141 23v149l-122 49v-149zM140 297q10 4 20 0l134 -54q6 -2 6 -9v-162q0 -6 -3 -10.5t-9 -6.5l-135 -54q-3 -2 -6 0l-135 54q-6 2 -9 6.5t-3 10.5v162
q0 7 6 9z" />
    <glyph glyph-name="box" unicode="box" 
d="M153 279q-3 2 -6 0l-112 -45l115 -46l115 46zM281 221l-122 -49v-149l122 49v149zM141 23v149l-122 49v-149zM140 297q10 4 20 0l134 -54q6 -2 6 -9v-162q0 -6 -3 -10.5t-9 -6.5l-135 -54q-3 -2 -6 0l-135 54q-6 2 -9 6.5t-3 10.5v162q0 7 6 9z" />
    <glyph glyph-name="braces" unicode="braces" 
d="M40 149v3q28 3 28 30v34q0 15 6 21.5t19 6.5h5v19h-7q-22 0 -33 -11t-11 -34v-28q0 -16 -6.5 -21.5t-21.5 -5.5v-25q15 0 21.5 -6t6.5 -21v-29q0 -22 11 -33t33 -11h7v18h-5q-13 0 -19 7t-6 22v34q0 27 -28 30zM260 152v-3q-28 -3 -28 -30v-34q0 -15 -6 -22t-19 -7h-5
v-18h7q22 0 33 11t11 33v29q0 15 6.5 21t21.5 6v25q-15 0 -21.5 5.5t-6.5 21.5v28q0 23 -11 33.5t-33 10.5h-7v-18h5q13 0 19 -6.5t6 -21.5v-34q0 -27 28 -30z" />
    <glyph glyph-name="bricks" unicode="bricks" 
d="M0 291q0 4 2.5 6.5t6.5 2.5h282q4 0 6.5 -2.5t2.5 -6.5v-57q0 -4 -2.5 -6.5t-6.5 -2.5h-28v-37h28q4 0 6.5 -3t2.5 -7v-56q0 -4 -2.5 -6.5t-6.5 -3.5h-28v-37h28q4 0 6.5 -2.5t2.5 -6.5v-57q0 -4 -2.5 -6.5t-6.5 -2.5h-282q-4 0 -6.5 2.5t-2.5 6.5v57q0 4 2.5 6.5
t6.5 2.5h29v38h-29q-4 0 -6.5 2.5t-2.5 6.5v56q0 4 2.5 7t6.5 3h29v37h-29q-4 0 -6.5 2.5t-2.5 6.5v57zM56 225v-37h85v37h-85zM159 225v-37h85v37h-85zM56 113v-38h85v38h-85zM159 113v-38h85v38h-85zM19 281v-37h65v37h-65zM103 281v-37h94v37h-94zM216 281v-37h65v37h-65
zM19 169v-38h65v38h-65zM103 169v-38h94v38h-94zM216 169v-38h65v38h-65zM19 56v-37h65v37h-65zM103 56v-37h94v37h-94zM216 56v-37h65v37h-65z" />
    <glyph glyph-name="briefcase-fill" unicode="briefcase&#x2d;fill" 
d="M122 281q-12 0 -20 -8t-8 -20v-9h-66q-12 0 -20 -8.5t-8 -19.5v-26l143 -38q7 -2 14 0l143 38v26q0 11 -8 19.5t-20 8.5h-66v9q0 12 -8 20t-20 8h-56zM122 263h56q4 0 7 -3t3 -7v-9h-75v9q0 4 2.5 7t6.5 3zM0 66q0 -12 8 -20.5t20 -8.5h244q12 1 20 9t8 20v106l-148 -40
h-4l-148 40v-106z" />
    <glyph glyph-name="briefcase" unicode="briefcase" 
d="M122 281q-12 0 -20 -8t-8 -20v-9h-66q-12 0 -20 -8.5t-8 -19.5v-150q0 -12 8 -20.5t20 -8.5h244q12 1 20 9t8 20v150q0 11 -8 19.5t-20 8.5h-66v9q0 12 -8 20t-20 8h-56zM122 263h56q4 0 7 -3t3 -7v-9h-75v9q0 4 2.5 7t6.5 3zM157 133l124 33v-100q0 -4 -2.5 -7t-6.5 -3
h-244q-4 0 -6.5 3t-2.5 7v100l124 -33q7 -2 14 0zM28 225h244q4 0 6.5 -2.5t2.5 -6.5v-31l-129 -34q-2 -1 -4 0l-129 34v31q0 4 2.5 6.5t6.5 2.5z" />
    <glyph glyph-name="brightness-alt-high-fill" unicode="brightness&#x2d;alt&#x2d;high&#x2d;fill" 
d="M150 244q4 0 6.5 -3t2.5 -7v-37q0 -4 -2.5 -7t-6.5 -2.5t-6.5 3t-2.5 6.5v37q0 4 2.5 7t6.5 3zM300 94q0 -4 -2.5 -7t-6.5 -3h-38q-4 0 -6.5 3t-2.5 7t2.5 6.5t6.5 2.5h38q4 0 6.5 -2.5t2.5 -6.5zM47 84q4 0 6.5 3t2.5 7t-2.5 6.5t-6.5 2.5h-38q-4 0 -6.5 -2.5t-2.5 -6.5
t2.5 -7t6.5 -3h38zM256 200q3 -3 3 -7t-3 -6l-26 -27q-4 -4 -9.5 -2.5t-7 6.5t2.5 9l27 27q3 3 6.5 3t6.5 -3zM70 160q3 -3 7 -3t6.5 3t2.5 7t-2 6l-27 27q-4 4 -9 2.5t-6.5 -7t2.5 -8.5zM150 169q-20 0 -37.5 -10t-27.5 -27.5t-10 -37.5q0 -4 2.5 -7t6.5 -3h132q4 0 6.5 3
t2.5 7q0 20 -10 37.5t-27.5 27.5t-37.5 10z" />
    <glyph glyph-name="brightness-alt-high" unicode="brightness&#x2d;alt&#x2d;high" 
d="M150 244q4 0 6.5 -3t2.5 -7v-37q0 -4 -2.5 -7t-6.5 -2.5t-6.5 3t-2.5 6.5v37q0 4 2.5 7t6.5 3zM300 94q0 -4 -2.5 -7t-6.5 -3h-38q-4 0 -6.5 3t-2.5 7t2.5 6.5t6.5 2.5h38q4 0 6.5 -2.5t2.5 -6.5zM47 84q4 0 6.5 3t2.5 7t-2.5 6.5t-6.5 2.5h-38q-4 0 -6.5 -2.5t-2.5 -6.5
t2.5 -7t6.5 -3h38zM256 200q3 -3 3 -7t-3 -6l-26 -27q-4 -4 -9.5 -2.5t-7 6.5t2.5 9l27 27q3 3 6.5 3t6.5 -3zM70 160q3 -3 7 -3t6.5 3t2.5 7t-2 6l-27 27q-4 4 -9 2.5t-6.5 -7t2.5 -8.5zM150 169q-20 0 -37.5 -10t-27.5 -27.5t-10 -37.5q0 -4 2.5 -7t6.5 -3h132q4 0 6.5 3
t2.5 7q0 20 -10 37.5t-27.5 27.5t-37.5 10zM150 150q21 0 36.5 -13.5t18.5 -33.5h-110q3 20 18.5 33.5t36.5 13.5z" />
    <glyph glyph-name="brightness-alt-low-fill" unicode="brightness&#x2d;alt&#x2d;low&#x2d;fill" 
d="M159 197q0 -4 -2.5 -7t-6.5 -2.5t-6.5 3t-2.5 6.5t2.5 6.5t6.5 2.5t6.5 -2.5t2.5 -6.5zM253 84q-4 0 -6.5 3t-2.5 7t2.5 6.5t6.5 2.5t7 -2.5t3 -6.5t-3 -7t-7 -3zM38 94q0 -4 2.5 -7t6.5 -3t6.5 3t2.5 7t-2.5 6.5t-6.5 2.5t-6.5 -2.5t-2.5 -6.5zM230 160q-4 -4 -9.5 -2.5
t-7 6.5t2 8.5t7.5 3.5t6.5 -3t2.5 -6.5t-2 -6.5zM70 173q-4 -4 -2.5 -9t7 -6.5t8.5 2t3 7t-2.5 6.5t-6.5 3t-7 -3zM150 169q-20 0 -37.5 -10t-27.5 -27.5t-10 -37.5q0 -4 2.5 -7t6.5 -3h132q4 0 6.5 3t2.5 7q0 20 -10 37.5t-27.5 27.5t-37.5 10z" />
    <glyph glyph-name="brightness-alt-low" unicode="brightness&#x2d;alt&#x2d;low" 
d="M159 197q0 -4 -2.5 -7t-6.5 -2.5t-6.5 3t-2.5 6.5t2.5 6.5t6.5 2.5t6.5 -2.5t2.5 -6.5zM253 84q-4 0 -6.5 3t-2.5 7t2.5 6.5t6.5 2.5t7 -2.5t3 -6.5t-3 -7t-7 -3zM38 94q0 -4 2.5 -7t6.5 -3t6.5 3t2.5 7t-2.5 6.5t-6.5 2.5t-6.5 -2.5t-2.5 -6.5zM230 160q-4 -4 -9.5 -2.5
t-7 6.5t2 8.5t7.5 3.5t6.5 -3t2.5 -6.5t-2 -6.5zM70 173q-4 -4 -2.5 -9t7 -6.5t8.5 2t3 7t-2.5 6.5t-6.5 3t-7 -3zM150 169q-20 0 -37.5 -10t-27.5 -27.5t-10 -37.5q0 -4 2.5 -7t6.5 -3h132q4 0 6.5 3t2.5 7q0 20 -10 37.5t-27.5 27.5t-37.5 10zM150 150q21 0 36.5 -13.5
t18.5 -33.5h-110q3 20 18.5 33.5t36.5 13.5z" />
    <glyph glyph-name="brightness-high-fill" unicode="brightness&#x2d;high&#x2d;fill" 
d="M225 150q0 -20 -10 -37.5t-27.5 -27.5t-37.5 -10t-37.5 10t-27.5 27.5t-10 37.5t10 37.5t27.5 27.5t37.5 10t37.5 -10t27.5 -27.5t10 -37.5zM150 300q4 0 6.5 -2.5t2.5 -6.5v-38q0 -4 -2.5 -6.5t-6.5 -2.5t-6.5 2.5t-2.5 6.5v38q0 4 2.5 6.5t6.5 2.5zM150 56
q4 0 6.5 -2.5t2.5 -6.5v-38q0 -4 -2.5 -6.5t-6.5 -2.5t-6.5 2.5t-2.5 6.5v38q0 4 2.5 6.5t6.5 2.5zM300 150q0 -4 -2.5 -6.5t-6.5 -2.5h-38q-4 0 -6.5 2.5t-2.5 6.5t2.5 6.5t6.5 2.5h38q4 0 6.5 -2.5t2.5 -6.5zM56 150q0 -4 -2.5 -6.5t-6.5 -2.5h-38q-4 0 -6.5 2.5t-2.5 6.5
t2.5 6.5t6.5 2.5h38q4 0 6.5 -2.5t2.5 -6.5zM256 256q3 -3 3 -6.5t-3 -6.5l-26 -27q-3 -2 -7 -2t-6.5 2.5t-2.5 6.5t2 7l27 26q3 3 6.5 3t6.5 -3zM84 84q2 -3 2 -7t-2 -7l-27 -26q-3 -3 -6.5 -3t-6.5 3t-3 6.5t3 6.5l26 27q3 2 7 2t7 -2zM256 44q-3 -3 -6.5 -3t-6.5 3
l-27 26q-2 3 -2 7t2.5 6.5t6.5 2.5t7 -2l26 -27q3 -3 3 -6.5t-3 -6.5zM84 216q-3 -2 -7 -2t-7 2l-26 27q-4 4 -2.5 9t6.5 6.5t9 -2.5l27 -26q2 -3 2 -7t-2 -7z" />
    <glyph glyph-name="brightness-high" unicode="brightness&#x2d;high" 
d="M150 94q-23 0 -39.5 16.5t-16.5 39.5t16.5 39.5t39.5 16.5t39.5 -16.5t16.5 -39.5t-16.5 -39.5t-39.5 -16.5zM150 75q20 0 37.5 10t27.5 27.5t10 37.5t-10 37.5t-27.5 27.5t-37.5 10t-37.5 -10t-27.5 -27.5t-10 -37.5t10 -37.5t27.5 -27.5t37.5 -10zM150 300
q4 0 6.5 -2.5t2.5 -6.5v-38q0 -4 -2.5 -6.5t-6.5 -2.5t-6.5 2.5t-2.5 6.5v38q0 4 2.5 6.5t6.5 2.5zM150 56q4 0 6.5 -2.5t2.5 -6.5v-38q0 -4 -2.5 -6.5t-6.5 -2.5t-6.5 2.5t-2.5 6.5v38q0 4 2.5 6.5t6.5 2.5zM300 150q0 -4 -2.5 -6.5t-6.5 -2.5h-38q-4 0 -6.5 2.5t-2.5 6.5
t2.5 6.5t6.5 2.5h38q4 0 6.5 -2.5t2.5 -6.5zM56 150q0 -4 -2.5 -6.5t-6.5 -2.5h-38q-4 0 -6.5 2.5t-2.5 6.5t2.5 6.5t6.5 2.5h38q4 0 6.5 -2.5t2.5 -6.5zM256 256q3 -3 3 -6.5t-3 -6.5l-26 -27q-3 -2 -7 -2t-6.5 2.5t-2.5 6.5t2 7l27 26q3 3 6.5 3t6.5 -3zM84 84q2 -3 2 -7
t-2 -7l-27 -26q-3 -3 -6.5 -3t-6.5 3t-3 6.5t3 6.5l26 27q3 2 7 2t7 -2zM256 44q-3 -3 -6.5 -3t-6.5 3l-27 26q-2 3 -2 7t2.5 6.5t6.5 2.5t7 -2l26 -27q3 -3 3 -6.5t-3 -6.5zM84 216q-3 -2 -7 -2t-7 2l-26 27q-4 4 -2.5 9t6.5 6.5t9 -2.5l27 -26q2 -3 2 -7t-2 -7z" />
    </font>
</defs>
</svg>
